.
Авторизация | Регистрация
Хочешь лучшие торренты? Добавь свой email!
Добавить

Торрент скачать бесплатно

» » Спущенный с цепи / Unleashed (2016) WEBRip [MVO] торрент скачать бесплатно




    Спущенный с цепи / Unleashed (2016) WEBRip [MVO] торрент скачать бесплатно

    Опубликовал: Админ | Дата: 1-12-2017, 05:00 | Просмотров: 0

    Производство: США/Braveart Films
    Жанр: Комедия
    Режиссер: Финн Тейлор

    Актеры
    Шон Эстин, Джастин Чатвин, Стив Хоуи, Кейт Микуччи, Хана Мэй Ли, Иллиана Даглас, Ванесса Росс, Джош Бренер, Кэти Гарвер, Скотт Коффи

    Описание

    Однажды пёс и кот главной героини Эммы превращаются в двух идеальных парней. Сначала девушка испытывает шок, но потом с помощью своих преобразившихся друзей она начинает по-другому воспринимать мир и окружающих её людей, учится снова доверять людям, ходить на свидания и, в конечном итоге, любить себя.

    Продолжительность: 01: 33: 55
    Качество видео: WEBRip
    Перевод: Многоголосый закадровый, любительский (D1)
    Субтитры: Английские (отдельным файлом)
    Видео: Xvid, 720x400, ~2020 Kbps
    Аудио: AC3, 2 ch, 192 Kbps

    General
    Complete name : /media/win/TORRENT/UPLOAD TORRENTS/Unleashed.(2016)/Unleashed.2017.avi
    Format : AVI
    Format/Info : Audio Video Interleave
    Format profile : OpenDML
    File size : 1.46 GiB
    Duration : 1 h 33 min
    Overall bit rate : 2 224 kb/s
    Writing application : Lavf57.71.100
    Comment : Rip by Basma4i
    Video
    ID : 0
    Format : MPEG-4 Visual
    Format profile : Advanced Simple@L5
    Format settings, BVOP : No
    Format settings, QPel : No
    Format settings, GMC : No warppoints
    Format settings, Matrix : Default (H.263)
    Codec ID : XVID
    Codec ID/Hint : XviD
    Duration : 1 h 33 min
    Bit rate : 2 020 kb/s
    Width : 720 pixels
    Height : 400 pixels
    Display aspect ratio : 16: 9
    Frame rate : 23.976 (24000/1001) FPS
    Color space : YUV
    Chroma subsampling : 4: 2: 0
    Bit depth : 8 bits
    Scan type : Progressive
    Compression mode : Lossy
    Bits/(Pixel*Frame) : 0.293
    Stream size : 1.32 GiB (91%)
    Writing library : XviD 67
    Audio
    ID : 1
    Format : AC-3
    Format/Info : Audio Coding 3
    Codec ID : 2000
    Duration : 1 h 33 min
    Bit rate mode : Constant
    Bit rate : 192 kb/s
    Channel(s) : 2 channels
    Channel positions : Front: L R
    Sampling rate : 48.0 kHz
    Frame rate : 31.250 FPS (1536 SPF)
    Bit depth : 16 bits
    Compression mode : Lossy
    Stream size : 129 MiB (9%)
    Alignment : Aligned on interleaves
    Interleave, duration : 32 ms (0.77 video frame)
    Service kind : Complete Main

    Скриншоты для ознакомления



    Все одноименные релизы в Клубе
    Время раздачи: с 09: 00 до 22: 00 до пяти скачавших (до появления первых 3-5 скачавших)


    Онлайн видео Спущенный с цепи



    Спущенный с цепи/Unleashed (2016) WEBRip [MVO]
    загрузка...
    Рейтинг →
     (голосов: 1, оценка 5/5, голосовать можно 1 раз )

    Другие торренты по теме:



      Комментарии (0):

      Информация

      Информация

        Посетители, находящиеся в группе Гости, не могут оставлять комментарии в данной новости.

        ↓ Меню




        ↓ Опрос

        Вы добавили сайт в закладки?
        Да
        Нет


        Top 10 за месяц (Фильмы)