.
Авторизация | Регистрация
Хочешь лучшие торренты? Добавь свой email!
Добавить

Торрент скачать бесплатно

» » Чериш / Cherish (2002) DVDRip [MVO] торрент скачать бесплатно




    Чериш / Cherish (2002) DVDRip [MVO] торрент скачать бесплатно

    Опубликовал: Админ | Дата: 1-12-2017, 05:00 | Просмотров: 0

    Производство: США/3 Ring Circus Films, Concrete Pictures, Outpost Studios
    Жанр: Триллер, Драма, Комедия, Детектив
    Режиссер: Фин Тэйлор

    Актеры
    Брэд Хант, Робин Танни, Лиз Фэир, Линдси Краус, Тим Блэйк Нельсон, Келвин Хань Йи, Джейсон Пристли, Карина Дэвис, Скотт Брайтенштайн, Тим Гриффин

    Описание

    Зоя Адлер, 20-летняя девушка, работающая компьютерным художником-аниматором, встречается на вечеринке в клубе с молодым человеком. После нескольких танцев и трех бокалов мартини она принимает его приглашение отправиться к нему домой, и выходит из клуба чтоб забрать свой сотовый телефон из машины. Не подозревая что за ней наблюдают и в машине ее уже поджидает таинственный похититель. В результате борьбы с преступником Зоя врезается в полицейского-велосипедиста и теряет сознание. Придя в себя она обнаруживает что ее похититель исчез, а ее обвиняеют в смерти полицейского. Свидетелей происшествия нет, и даже ее адвокат не в силах спасти ее от приговора. На ее ноги одевают электронные кандалы, и весь ее мир сжимается до круга радиусом в 50 метров, ровно настолько она может удалятся теперь от своей квартиры...

    Возраст: 16+ (зрителям, достигшим 16 лет)
    Рейтинг MPAA: R (лицам до 17 лет обязательно присутствие взрослого)
    Продолжительность: 01: 36: 02
    Качество видео: DVDRip
    Перевод: Двуголосый закадровый
    Субтитры: отсутствуют
    Видео: DivX 5, 640x352, ~891 Kbps
    Аудио: MP3, 2 ch, 128 Kbps

    General
    Complete name : /media/win/TORRENT/UPLOAD TORRENTS/Cherish_2002_DVDRip.avi
    Format : AVI
    Format/Info : Audio Video Interleave
    File size : 701 MiB
    Duration : 1 h 36 min
    Overall bit rate mode : Variable
    Overall bit rate : 1 020 kb/s
    Writing application : VirtualDubMod 1.5.4.1 (build 2178/release)
    Writing library : VirtualDubMod build 2178/release
    Video
    ID : 0
    Format : MPEG-4 Visual
    Format settings : BVOP1
    Format settings, BVOP : 1
    Format settings, QPel : No
    Format settings, GMC : No warppoints
    Format settings, Matrix : Default (H.263)
    Muxing mode : Packed bitstream
    Codec ID : DX50
    Codec ID/Hint : DivX 5
    Duration : 1 h 36 min
    Bit rate : 891 kb/s
    Nominal bit rate : 8 000 kb/s
    Width : 640 pixels
    Height : 352 pixels
    Display aspect ratio : 16: 9
    Frame rate : 23.976 (24000/1001) FPS
    Color space : YUV
    Chroma subsampling : 4: 2: 0
    Bit depth : 8 bits
    Scan type : Progressive
    Compression mode : Lossy
    Bits/(Pixel*Frame) : 0.165
    Stream size : 612 MiB (87%)
    Writing library : DivX 5.0.5 (UTC 2003-04-24)
    Audio
    ID : 1
    Format : MPEG Audio
    Format version : Version 1
    Format profile : Layer 3
    Format settings : Joint stereo/MS Stereo
    Codec ID : 55
    Codec ID/Hint : MP3
    Duration : 1 h 36 min
    Bit rate mode : Variable
    Bit rate : 117 kb/s
    Nominal bit rate : 128 kb/s
    Channel(s) : 2 channels
    Sampling rate : 48.0 kHz
    Frame rate : 41.667 FPS (1152 SPF)
    Compression mode : Lossy
    Stream size : 80.5 MiB (11%)
    Alignment : Aligned on interleaves
    Interleave, duration : 24 ms (0.58 video frame)
    Interleave, preload duration : 157 ms
    Writing library : LAME3.90.
    Encoding settings : -m j -V 0 -q 5 -lowpass 15.3 --abr 128


    Онлайн видео Чериш



    Чериш/Cherish (2002) DVDRip [MVO]
    загрузка...
    Рейтинг →
     (голосов: 1, оценка 3/5, голосовать можно 1 раз )

    Другие торренты по теме:

  • Чериш / Cherish (2002) WEBRip [H.264 / 1080p]


    • Комментарии (0):

      Информация

      Информация

        Посетители, находящиеся в группе Гости, не могут оставлять комментарии в данной новости.

        ↓ Меню




        ↓ Опрос

        Вы добавили сайт в закладки?
        Да
        Нет


        Top 10 за месяц (Фильмы)