.
Авторизация | Регистрация
Хочешь лучшие торренты? Добавь свой email!
Добавить

Торрент скачать бесплатно

» » Большая прогулка / La grande vadrouille (1966) BDRip [H.264 / 1080p] торрент скачать бесплатно




    Большая прогулка / La grande vadrouille (1966) BDRip [H.264 / 1080p] торрент скачать бесплатно

    Опубликовал: Админ | Дата: 1-12-2017, 05:00 | Просмотров: 0

    Производство: Франция, Великобритания/кинокомпания: Les Films Corona
    Жанр: Комедия, Военный
    Режиссер: Жерар Ури

    Актеры
    Бурвиль, Луи де Фюнес, Клаудио Брук, Андреа Паризи, Колетт Броссе, Майк Маршалл, Мари Марке, Пьер Бертен, Бенно Штерценбах, Мари Дюбуа

    Описание

    Действие фильма разворачивается во время Второй мировой войны на территории оккупированной Франции. Лето 1942 года. После выполнения задания бомбардировщик B-17 Британских Королевских Военно-воздушных сил сбился c курса и был подбит немецкими зенитными орудиями над Парижем.
    Первый пилот самолёта сэр Реджинальд Брук спасён служителем Парижского зоопарка, раненому штурману Питеру Каннингему помогают убежать от нацистов маляр Огюстен Буве и юная парижанка Жюльетта, стрелок-радист Алан Макинтош приземляется прямо на крышу Парижской Оперы, где его находит и прячет в своей гримёрной главный дирижёр Станислас Лефор. Так начинаются приключения трех английских летчиков…

    Возраст: 12+ (зрителям, достигшим 12 лет)
    Продолжительность: 02: 03: 55
    Качество видео: BDRip
    Перевод: Дублированный, многоголосый закадровый
    Субтитры: отсутствуют
    Видео: AVC/H.264, 1920x768, ~8600 Kbps
    Аудио#1: AC3, 1 ch, 256 Kbps | Русский – DUB (Союзмультфильм)
    Аудио#2: AC3, 2 ch, 256 Kbps | Русский – MVO (5 Канал СПб)
    Аудио#3: AC3, 2 ch, 256 Kbps | Русский – MVO (РТР)
    Аудио#4: AC3, 2 ch, 256 Kbps | Французский – оригинал

    Общее
    Уникальный идентификатор : 241246626327151110228374918143064713029 (0xB57E69006A4C3A78A63A0B8A1E08A745)
    Полное имя : I: БурвильБольшая прогулкаБольшая прогулка. 1966. BD Rip 1080p.mkv
    Формат : Matroska
    Версия формата : Version 4/Version 2
    Размер файла : 8, 33 Гбайт
    Продолжительность : 2 ч. 3 м.
    Общий поток : 9619 Кбит/сек
    Название фильма : Release for Topmost
    Дата кодирования : UTC 2017-11-30 04: 30: 38
    Программа кодирования : mkvmerge v6.2.0 (\'Promised Land\') built on Apr 28 2013 12: 22: 01
    Библиотека кодирования : libebml v1.3.0 + libmatroska v1.4.0
    Attachment : Yes
    Видео
    Идентификатор : 1
    Формат : AVC
    Формат/Информация : Advanced Video Codec
    Профиль формата : High@L4.1
    Параметр CABAC формата : Да
    Параметр ReFrames формата : 4 кадра
    Идентификатор кодека : V_MPEG4/ISO/AVC
    Продолжительность : 2 ч. 3 м.
    Битрейт : 8600 Кбит/сек
    Ширина : 1920 пикселей
    Высота : 768 пикселей
    Соотношение сторон : 2, 500
    Режим частоты кадров : Постоянный
    Частота кадров : 24, 000 кадра/сек
    Цветовое пространство : YUV
    Субдискретизация насыщенности : 4: 2: 0
    Битовая глубина : 8 бит
    Тип развёртки : Прогрессивная
    Бит/(Пиксели*Кадры) : 0.243
    Размер потока : 7, 27 Гбайт (87%)
    Заголовок : Большая прогулка. 1966. BD Rip 1080p (Release for Topmost)
    Библиотека кодирования : x264 core 146 r2538 121396c
    Настройки программы : cabac=1/ref=4/deblock=1: -3: -3/analyse=0x3: 0x113/me=umh/subme=11/psy=1/psy_rd=1.00: 0.15/mixed_ref=1/me_range=32/chroma_me=1/trellis=2/8x8dct=1/cqm=0/deadzone=21, 11/fast_pskip=0/chroma_qp_offset=-3/threads=12/lookahead_threads=2/sliced_threads=0/nr=0/decimate=0/interlaced=0/bluray_compat=0/constrained_intra=0/bframes=8/b_pyramid=2/b_adapt=2/b_bias=0/direct=3/weightb=1/open_gop=0/weightp=2/keyint=240/keyint_min=23/scenecut=40/intra_refresh=0/rc_lookahead=40/rc=2pass/mbtree=1/bitrate=8600/ratetol=1.0/qcomp=0.60/qpmin=0/qpmax=69/qpstep=4/cplxblur=20.0/qblur=0.5/ip_ratio=1.40/aq=1: 0.90
    Язык : French
    Default : Да
    Forced : Нет
    Аудио #1
    Идентификатор : 2
    Формат : AC-3
    Формат/Информация : Audio Coding 3
    Расширение режима : CM (complete main)
    Параметр Endianness формата : Big
    Идентификатор кодека : A_AC3
    Продолжительность : 2 ч. 3 м.
    Вид битрейта : Постоянный
    Битрейт : 256 Кбит/сек
    Каналы : 1 канал
    Расположение каналов : Front: C
    Частота : 48, 0 КГц
    Битовая глубина : 16 бит
    Метод сжатия : С потерями
    Задержка видео : 1 с. 583 мс.
    Размер потока : 227 Мбайт (3%)
    Заголовок : AC3, 1 ch, 256 Kbps - DUB (Союзмультфильм)
    Язык : Russian
    Default : Да
    Forced : Нет
    Аудио #2
    Идентификатор : 3
    Формат : AC-3
    Формат/Информация : Audio Coding 3
    Расширение режима : CM (complete main)
    Параметр Endianness формата : Big
    Идентификатор кодека : A_AC3
    Продолжительность : 2 ч. 3 м.
    Вид битрейта : Постоянный
    Битрейт : 256 Кбит/сек
    Каналы : 2 канала
    Расположение каналов : Front: L R
    Частота : 48, 0 КГц
    Битовая глубина : 16 бит
    Метод сжатия : С потерями
    Задержка видео : 1 с. 416 мс.
    Размер потока : 227 Мбайт (3%)
    Заголовок : AC3, 2 ch, 256 Kbps - MVO (РТР)
    Язык : Russian
    Default : Нет
    Forced : Нет
    Аудио #3
    Идентификатор : 4
    Формат : AC-3
    Формат/Информация : Audio Coding 3
    Расширение режима : CM (complete main)
    Параметр Endianness формата : Big
    Идентификатор кодека : A_AC3
    Продолжительность : 2 ч. 3 м.
    Вид битрейта : Постоянный
    Битрейт : 256 Кбит/сек
    Каналы : 2 канала
    Расположение каналов : Front: L R
    Частота : 48, 0 КГц
    Битовая глубина : 16 бит
    Метод сжатия : С потерями
    Задержка видео : 1 с. 416 мс.
    Размер потока : 227 Мбайт (3%)
    Заголовок : AC3, 2 ch, 256 Kbps - MVO (5 Канал СПб)
    Язык : Russian
    Default : Нет
    Forced : Нет
    Аудио #4
    Идентификатор : 5
    Формат : AC-3
    Формат/Информация : Audio Coding 3
    Расширение режима : CM (complete main)
    Параметр Endianness формата : Big
    Идентификатор кодека : A_AC3
    Продолжительность : 2 ч. 3 м.
    Вид битрейта : Постоянный
    Битрейт : 256 Кбит/сек
    Каналы : 2 канала
    Расположение каналов : Front: L R
    Частота : 48, 0 КГц
    Битовая глубина : 16 бит
    Метод сжатия : С потерями
    Размер потока : 227 Мбайт (3%)
    Заголовок : AC3, 2 ch, 256 Kbps - оригинал
    Язык : French
    Default : Нет
    Forced : Нет
    Меню
    00: 00: 00.000 : en: 00: 00: 00.000
    00: 09: 30.416 : en: 00: 10: 25.000
    00: 19: 08.624 : en: 00: 20: 03.208
    00: 30: 55.249 : en: 00: 31: 49.833
    00: 39: 16.999 : en: 00: 40: 11.583
    00: 49: 51.583 : en: 00: 50: 46.167
    00: 58: 54.374 : en: 00: 59: 48.958
    01: 10: 00.291 : en: 01: 10: 54.875
    01: 19: 32.374 : en: 01: 20: 26.958
    01: 30: 02.333 : en: 01: 30: 56.917
    01: 39: 07.791 : en: 01: 40: 02.375
    01: 50: 13.499 : en: 01: 51: 08.083

    Скриншоты для ознакомления




    Все одноименные релизы в Клубе
    Время раздачи: 24/7 до 5 скачавших (до появления первых 3-5 скачавших)


    Онлайн видео Большая прогулка



    Большая прогулка/La grande vadrouille (1966) BDRip [H.264/1080p]
    загрузка...
    Рейтинг →
     (голосов: 1, оценка 4/5, голосовать можно 1 раз )

    Другие торренты по теме:

  • Большая прогулка / La grande vadrouille / Dont Look Now... Were Being Shot At! (1966) BDRip [H.264 / 1080p-LQ] скачать через торрент бесплатно
  • Большая прогулка / La grande vadrouille (1966) BDRip [H.264]


    • Комментарии (0):

      Информация

      Информация

        Посетители, находящиеся в группе Гости, не могут оставлять комментарии в данной новости.

        ↓ Меню




        ↓ Опрос

        Вы добавили сайт в закладки?
        Да
        Нет


        Top 10 за месяц (Фильмы)