.
Авторизация | Регистрация
Хочешь лучшие торренты? Добавь свой email!
Добавить

Торрент скачать бесплатно

» » Вечеринка / The Party (2017) BDRip [H.264 / 1080p] [EN] торрент скачать бесплатно




    Вечеринка / The Party (2017) BDRip [H.264 / 1080p] [EN] торрент скачать бесплатно

    Опубликовал: Админ | Дата: 1-12-2017, 05:00 | Просмотров: 0

    Производство: Великобритания, Adventure Pictures, Oxwich Media
    Жанр: Комедия, Драма
    Режиссер: Салли Поттер
    Продюсер: Курбан Кассам, Кристофер Шеппард, Элис Доусон, ...

    Актеры
    Патришия Кларксон, Бруно Ганц, Черри Джонс, Эмили Мортимер, Киллиан Мёрфи, Кристин Скотт Томас, Тимоти Сполл

    Описание

    Дома у Билла и Джэнет собираются старые друзья — посидеть, выпить вина, поделиться новостями, тем более, что в жизни всех участников встречи происходит что-то интересное. Вечер удался бы на славу, но тут Билл сделал такое заявление, что настроение у всех резко испортилось. Теперь старые друзья уже готовы вцепиться друг другу в глотку, как в переносном, так и во вполне прямом смысле.

    Премьера (мир): 13 февраля 2017, ...
    Премьера (РФ): 21 декабря 2017, Russian World Vision

    Продолжительность: 01: 10: 43
    Качество видео: BDRip 1080p
    Перевод: Отсутствует
    Язык озвучки: Английский
    Субтитры: Отсутствуют
    Видео: AVC, 1920x808 (2.35: 1), 24.000 fps, 9 543 Kbps (0.256 bit/pixel)
    Аудио: DTS, 48.0 KHz, 6 ch, 1 510 Kbps, CBR (English)
    General
    Complete name : The.Party.2017.1080p.BluRay.x264.mkv
    Format : Matroska
    Format version : Version 4/Version 2
    File size : 5.46 GiB
    Duration : 1 h 10 min
    Overall bit rate : 11.1 Mb/s
    Encoded date : UTC 2017-11-30 09: 27: 00
    Writing application : mkvmerge v9.7.1 (\'Pandemonium\') 64bit
    Writing library : libebml v1.3.4 + libmatroska v1.4.5
    Video
    ID : 1
    Format : AVC
    Format/Info : Advanced Video Codec
    Format profile : High@L4.1
    Format settings : CABAC/5 Ref Frames
    Format settings, CABAC : Yes
    Format settings, ReFrames : 5 frames
    Codec ID : V_MPEG4/ISO/AVC
    Duration : 1 h 10 min
    Bit rate : 9 543 kb/s
    Width : 1 920 pixels
    Height : 808 pixels
    Display aspect ratio : 2.40: 1
    Frame rate mode : Constant
    Frame rate : 24.000 FPS
    Color space : YUV
    Chroma subsampling : 4: 2: 0
    Bit depth : 8 bits
    Scan type : Progressive
    Bits/(Pixel*Frame) : 0.256
    Stream size : 4.71 GiB (86%)
    Writing library : x264 core 152 r2851 ba24899
    Encoding settings : cabac=1/ref=5/deblock=1: 0: 0/analyse=0x3: 0x113/me=umh/subme=8/psy=1/psy_rd=1.00: 0.00/mixed_ref=1/me_range=16/chroma_me=1/trellis=2/8x8dct=1/cqm=0/deadzone=21, 11/fast_pskip=0/chroma_qp_offset=-2/threads=12/lookahead_threads=2/sliced_threads=0/nr=0/decimate=1/interlaced=0/bluray_compat=0/constrained_intra=0/bframes=3/b_pyramid=2/b_adapt=1/b_bias=0/direct=1/weightb=1/open_gop=0/weightp=2/keyint=250/keyint_min=24/scenecut=40/intra_refresh=0/rc_lookahead=50/rc=2pass/mbtree=1/bitrate=9543/ratetol=1.0/qcomp=0.60/qpmin=0/qpmax=69/qpstep=4/cplxblur=20.0/qblur=0.5/ip_ratio=1.40/aq=1: 1.00
    Default : Yes
    Forced : No
    Audio
    ID : 2
    Format : DTS
    Format/Info : Digital Theater Systems
    Codec ID : A_DTS
    Duration : 1 h 10 min
    Bit rate mode : Constant
    Bit rate : 1 509 kb/s
    Channel(s) : 6 channels
    Channel positions : Front: L C R, Side: L R, LFE
    Sampling rate : 48.0 kHz
    Frame rate : 93.750 FPS (512 SPF)
    Bit depth : 24 bits
    Compression mode : Lossy
    Stream size : 763 MiB (14%)
    Language : English
    Default : Yes
    Forced : No


    Онлайн видео Вечеринка



    Вечеринка/The Party (2017) BDRip [H.264/1080p] [EN]
    загрузка...
    Рейтинг →
     (голосов: 1, оценка 5/5, голосовать можно 1 раз )

    Другие торренты по теме:

  • Вечеринка / The Party (1968) BDRip
  • Вечеринка / The Party (1968) BDRip [H.265 / 1080p-LQ]
  • Вечеринка на яхте / Party Boat (2017) WEB-DLRip [MVO] [AD]
  • Вечеринка / The Party (2017) HDRip [MVO] [AD]


    • Комментарии (0):

      Информация

      Информация

        Посетители, находящиеся в группе Гости, не могут оставлять комментарии в данной новости.

        ↓ Меню




        ↓ Опрос

        Вы добавили сайт в закладки?
        Да
        Нет


        Top 10 за месяц (Фильмы)