.
Авторизация | Регистрация
Хочешь лучшие торренты? Добавь свой email!
Добавить

Торрент скачать бесплатно

» » Бриллиантовый полицейский / Blue Streak (1999) BDRip [H.265 / 1080p] [10-bit] торрент скачать бесплатно




    Бриллиантовый полицейский / Blue Streak (1999) BDRip [H.265 / 1080p] [10-bit] торрент скачать бесплатно

    Опубликовал: Админ | Дата: 1-12-2017, 05:00 | Просмотров: 0

    Производство: США, Германия/Columbia Pictures, IndieProd Company Productions, Blue Streak Productions
    Жанр: Боевик, Триллер, Комедия
    Режиссер: Лес Мэйфилд
    Продюсер: Тоби Джаффе, Нил Х. Мориц, Пичес Дэвис

    Актеры
    Мартин Лоуренс, Люк Уилсон, Питер Грин, Дэйв Шаппелл, Николь Ари Паркер, Грэм Беккел, Роберт Миранда, Олек Крупа, Саверио Гуэрра, Ричард С. Сарафьян

    Описание

    Непревзойденный эксперт по открыванию сейфов Майлс Логан выйдя из тюрьмы, направляется прямо в полицию. Перед арестом он спрятал свой бесценный бриллиант на стройке, которая теперь превратилась в полицейский участок. Чтобы вернуть украденное, Майлс становится полицейским, и, как назло, он вынужден участвовать в самых настоящих расследованиях. Неисправимый рецидивист за считанные дни становится начальником целого подразделения! Кто, как не вор лучше знает все тонкости криминального мира? Но в это время преступное сообщество пристально наблюдало за деятельностью бриллиантового полицейского, и решило принять меры…

    Возраст: 12+ (зрителям, достигшим 12 лет)
    Рейтинг MPAA: PG-13 (детям до 13 лет просмотр нежелателен)
    Релиз от: Goor80
    Продолжительность: 01: 34: 07
    Качество видео: BDRip
    Перевод: Дублированный, Многоголосый закадровый x2, Одноголосый закадровый x2
    Субтитры: русские, английские
    Видео: HEVC/H.265, 1920x1032, ~9074 Kbps
    Аудио 1: AC3, 6 ch, 640 Kbps (русский, дубляж - Blu-Ray CEE)
    Аудио 2: DTS, 6 ch, 1509 Kbps (русский, многоголосый - R5)
    Аудио 3: AC3, 2 ch, 192 Kbps (русский, многоголосый - ОРТ)
    Аудио 4: AC3, 6 ch, 640 Kbps (английский)
    Аудио 5: AC3, 2 ch, 192 Kbps (русский, одноголосый - Латышев (отдельным файлом)
    Аудио 6: DTS, 6 ch, 1509 Kbps (русский, одноголосый - Санаев (отдельным файлом)

    Общее
    Полное имя : E: VideoБриллиантовый полицейский (Blue Streak)AudiotracksAVO Латышев.ac3
    Формат : AC-3
    Формат/Информация : Audio Coding 3
    Размер файла : 129 Мбайт
    Продолжительность : 1 ч. 34 м.
    Режим общего битрейта : Постоянный
    Общий поток : 192 Кбит/сек
    Аудио
    Формат : AC-3
    Формат/Информация : Audio Coding 3
    Параметр Endianness формата : Big
    Продолжительность : 1 ч. 34 м.
    Вид битрейта : Постоянный
    Битрейт : 192 Кбит/сек
    Каналы : 2 канала
    Расположение каналов : Front: L R
    Частота : 48, 0 КГц
    Частота кадров : 31, 250 кадров/сек (1536 spf)
    Битовая глубина : 16 бит
    Метод сжатия : С потерями
    Размер потока : 129 Мбайт (100%)
    ServiceKind/String : Complete Main
    Общее
    Полное имя : E: VideoБриллиантовый полицейский (Blue Streak)AudiotracksAVO Санаев.dts
    Формат : DTS
    Формат/Информация : Digital Theater Systems
    Размер файла : 1016 Мбайт
    Продолжительность : 1 ч. 34 м.
    Режим общего битрейта : Постоянный
    Общий поток : 1509 Кбит/сек
    Аудио
    Формат : DTS
    Формат/Информация : Digital Theater Systems
    Режим : 16
    Параметр Endianness формата : Big
    Продолжительность : 1 ч. 34 м.
    Вид битрейта : Постоянный
    Битрейт : 1509 Кбит/сек
    Каналы : 6 каналов
    Расположение каналов : Front: L C R, Side: L R, LFE
    Частота : 48, 0 КГц
    Частота кадров : 93, 750 кадра/сек (512 spf)
    Битовая глубина : 24 бит
    Метод сжатия : С потерями
    Размер потока : 1016 Мбайт (100%)
    Общее
    Уникальный идентификатор : 193550906099140099336615043550283755628 (0x919C8C6FDE103F63846F3D3EBF2EF06C)
    Полное имя : E: VideoБриллиантовый полицейский (Blue Streak)Бриллиантовый полицейский (Blue Streak).mkv
    Формат : Matroska
    Версия формата : Version 4/Version 2
    Размер файла : 7, 95 Гбайт
    Продолжительность : 1 ч. 34 м.
    Общий поток : 12, 1 Мбит/сек
    Название фильма : Бриллиантовый полицейский/Blue Streak
    Дата кодирования : UTC 2017-11-20 02: 01: 50
    Программа кодирования : mkvmerge v15.0.0 (\'Duel with the Devil\') 64-bit
    Библиотека кодирования : libebml v1.3.5 + libmatroska v1.4.5
    Авторское право : Encoded by Goor80
    Видео
    Идентификатор : 1
    Формат : HEVC
    Формат/Информация : High Efficiency Video Coding
    Профиль формата : Main 10@L4@High
    Идентификатор кодека : V_MPEGH/ISO/HEVC
    Продолжительность : 1 ч. 34 м.
    Битрейт : 9074 Кбит/сек
    Ширина : 1920 пикселей
    Высота : 1032 пикселя
    Соотношение сторон : 1, 85: 1
    Режим частоты кадров : Постоянный
    Частота кадров : 23, 976 (24000/1001) кадра/сек
    Цветовое пространство : YUV
    Субдискретизация насыщенности : 4: 2: 0
    Битовая глубина : 10 бит
    Бит/(Пиксели*Кадры) : 0.191
    Размер потока : 5, 96 Гбайт (75%)
    Default : Да
    Forced : Нет
    Аудио #1
    Идентификатор : 2
    Формат : AC-3
    Формат/Информация : Audio Coding 3
    Параметр Endianness формата : Big
    Идентификатор кодека : A_AC3
    Продолжительность : 1 ч. 34 м.
    Вид битрейта : Постоянный
    Битрейт : 640 Кбит/сек
    Каналы : 6 каналов
    Расположение каналов : Front: L C R, Side: L R, LFE
    Частота : 48, 0 КГц
    Частота кадров : 31, 250 кадров/сек (1536 spf)
    Битовая глубина : 16 бит
    Метод сжатия : С потерями
    Размер потока : 431 Мбайт (5%)
    Заголовок : Перевод: Дубляж, BD CEE
    Язык : Russian
    ServiceKind/String : Complete Main
    Default : Да
    Forced : Нет
    Аудио #2
    Идентификатор : 3
    Формат : DTS
    Формат/Информация : Digital Theater Systems
    Режим : 16
    Параметр Endianness формата : Big
    Идентификатор кодека : A_DTS
    Продолжительность : 1 ч. 34 м.
    Вид битрейта : Постоянный
    Битрейт : 1509 Кбит/сек
    Каналы : 6 каналов
    Расположение каналов : Front: L C R, Side: L R, LFE
    Частота : 48, 0 КГц
    Частота кадров : 93, 750 кадра/сек (512 spf)
    Битовая глубина : 24 бит
    Метод сжатия : С потерями
    Размер потока : 1016 Мбайт (12%)
    Заголовок : Перевод: Многоголосый закадровый, R5
    Язык : Russian
    Default : Нет
    Forced : Нет
    Аудио #3
    Идентификатор : 4
    Формат : AC-3
    Формат/Информация : Audio Coding 3
    Параметр Endianness формата : Big
    Идентификатор кодека : A_AC3
    Продолжительность : 1 ч. 34 м.
    Вид битрейта : Постоянный
    Битрейт : 192 Кбит/сек
    Каналы : 2 канала
    Расположение каналов : Front: L R
    Частота : 48, 0 КГц
    Частота кадров : 31, 250 кадров/сек (1536 spf)
    Битовая глубина : 16 бит
    Метод сжатия : С потерями
    Размер потока : 129 Мбайт (2%)
    Заголовок : Перевод: Многоголосый закадровый, ОРТ
    Язык : Russian
    ServiceKind/String : Complete Main
    Default : Нет
    Forced : Нет
    Аудио #4
    Идентификатор : 5
    Формат : AC-3
    Формат/Информация : Audio Coding 3
    Параметр Endianness формата : Big
    Идентификатор кодека : A_AC3
    Продолжительность : 1 ч. 34 м.
    Вид битрейта : Постоянный
    Битрейт : 640 Кбит/сек
    Каналы : 6 каналов
    Расположение каналов : Front: L C R, Side: L R, LFE
    Частота : 48, 0 КГц
    Частота кадров : 31, 250 кадров/сек (1536 spf)
    Битовая глубина : 16 бит
    Метод сжатия : С потерями
    Размер потока : 431 Мбайт (5%)
    Язык : English
    ServiceKind/String : Complete Main
    Default : Нет
    Forced : Нет
    Текст #1
    Идентификатор : 6
    Формат : PGS
    Режим смешивания : zlib
    Идентификатор кодека : S_HDMV/PGS
    Идентификатор кодека/Информация : Picture based subtitle format used on BDs/HD-DVDs
    Продолжительность : 1 ч. 29 м.
    Битрейт : 25, 6 Кбит/сек
    ElementCount : 2528
    Размер потока : 16, 3 Мбайт (0%)
    Язык : Russian
    Default : Да
    Forced : Нет
    Текст #2
    Идентификатор : 7
    Формат : PGS
    Режим смешивания : zlib
    Идентификатор кодека : S_HDMV/PGS
    Идентификатор кодека/Информация : Picture based subtitle format used on BDs/HD-DVDs
    Продолжительность : 1 ч. 27 м.
    Битрейт : 35, 2 Кбит/сек
    ElementCount : 2460
    Размер потока : 22, 2 Мбайт (0%)
    Язык : English
    Default : Нет
    Forced : Нет
    Текст #3
    Идентификатор : 8
    Формат : PGS
    Режим смешивания : zlib
    Идентификатор кодека : S_HDMV/PGS
    Идентификатор кодека/Информация : Picture based subtitle format used on BDs/HD-DVDs
    Продолжительность : 1 ч. 33 м.
    Битрейт : 27, 9 Кбит/сек
    ElementCount : 2759
    Размер потока : 18, 6 Мбайт (0%)
    Язык : English
    Default : Нет
    Forced : Нет
    Меню
    00: 00: 00.000 : en: 00: 00: 00.000
    00: 11: 04.330 : en: 00: 11: 04.330
    00: 18: 03.082 : en: 00: 18: 03.082
    00: 22: 22.382 : en: 00: 22: 22.382
    00: 30: 13.895 : en: 00: 30: 13.895
    00: 35: 49.313 : en: 00: 35: 49.313
    00: 38: 51.245 : en: 00: 38: 51.245
    00: 47: 50.492 : en: 00: 47: 50.492
    00: 50: 29.025 : en: 00: 50: 29.025
    00: 56: 26.257 : en: 00: 56: 26.257
    01: 03: 15.124 : en: 01: 03: 15.124
    01: 07: 44.477 : en: 01: 07: 44.477
    01: 11: 27.533 : en: 01: 11: 27.533
    01: 17: 29.144 : en: 01: 17: 29.144
    01: 23: 10.985 : en: 01: 23: 10.985
    01: 27: 58.189 : en: 01: 27: 58.189
    H.265/HEVC (High Efficiency Video Coding) - это новый стандарт кодирования видео.
    *Рипы в фомате HEVC, в настоящее время не поддерживается большинством аппаратных проигрывателей.
    *Для корректного воспроизведения может потребоваться обновление ПО.
    *Стандарт H.265/HEVC является логическим продолжением стандарта H.264/AVC (Advanced Video Coding), и характеризуется более эффективными алгоритмами сжатия, а также поддержкой высокого разрешения вплоть до 8K UHD (8192x4320). Первая версия стандарта H.265 была опубликована в начале 2013 года.
    Любителям решения из коробки - установить последнюю версию на выбор:
    Media Player Classic - Black Edition (MPC-BE)
    VLC media player
    Daum Pot Player
    GOM Media Player
    Любителям WMP и других плееров, использующих по умолчанию для воспроизведения системные кодеки+сплитеры - установить K-Lite Codec Pack версии 10.1.0 и выше.
    Любимые плееры, не использующии по умолчанию для воспроизведения системные кодеки+сплитеры, нужно перенастроить на использование оных.

    Скриншоты для ознакомления



    Все одноименные релизы в Клубе
    Время раздачи: с 11: 00 до 21: 00 по Новосибирску (UTC +7) (до появления первых 3-5 скачавших)


    Онлайн видео Бриллиантовый полицейский



    Бриллиантовый полицейский/Blue Streak (1999) BDRip [H.265/1080p] [10-bit]
    загрузка...
    Рейтинг →
     (голосов: 1, оценка 3/5, голосовать можно 1 раз )

    Другие торренты по теме:

  • Бриллиантовый полицейский / Blue Streak (1999) BDRip [H.264 / 1080p] скачать через торрент бесплатно
  • Бриллиантовый полицейский / Blue Streak (1999) BDRemux [H.264 / 1080p] скачать через торрент бесплатно


    • Комментарии (0):

      Информация

      Информация

        Посетители, находящиеся в группе Гости, не могут оставлять комментарии в данной новости.

        ↓ Меню




        ↓ Опрос

        Вы добавили сайт в закладки?
        Да
        Нет


        Top 10 за месяц (Фильмы)