.
Авторизация | Регистрация
Хочешь лучшие торренты? Добавь свой email!
Добавить

Торрент скачать бесплатно

» » В гостях у Элис / Home Again (2017) HDRip торрент скачать бесплатно




    В гостях у Элис / Home Again (2017) HDRip торрент скачать бесплатно

    Опубликовал: Админ | Дата: 1-12-2017, 05:00 | Просмотров: 0

    Производство: США/Black Bicycle Entertainment
    Жанр: Драма, Мелодрама, Комедия
    Режиссер: Холли Мейерс-Шайер
    Продюсер: Нэнси Майерс, Эрика Олд, Пола Кейс

    Актеры
    Риз Уизерспун, Майкл Шин, Нат Вулф, Лэйк Белл, Пико Александр, Кэндис Берген, Лола Флэнери, Джон Рудницкий, Кристин Вудс, Рейд Скотт

    Описание

    Жизнь матери-одиночки из Лос-Анджелеса неожиданно меняется, когда она разрешает трем парням пожить у нее.

    Возраст: 16+ (зрителям, достигшим 16 лет)
    Рейтинг MPAA: PG-13 (детям до 13 лет просмотр нежелателен)
    Дата мировой премьеры: 7 сентября 2017
    Дата российской премьеры: 7 сентября 2017, Централ Партнершип
    Продолжительность: 01: 37: 15
    Качество видео: HDRip
    Перевод: Дублированный | iTunes
    Субтитры: Отсутствуют
    Видео: Xvid, 656x352, ~942 Kbps
    Аудио: MP3, 2 ch, 128 Kbps

    Общее
    Полное имя : D: ВидеоtorrrentHome.Again.2017.745MB.MegaPeer.avi
    Формат : AVI
    Формат/Информация : Audio Video Interleave
    Размер файла : 749 Мбайт
    Продолжительность : 1 ч. 37 м.
    Общий поток : 1076 Кбит/сек
    Видео
    Идентификатор : 0
    Формат : MPEG-4 Visual
    Профиль формата : Advanced Simple@L5
    Параметр BVOP формата : 1
    Параметр QPel формата : Нет
    Параметр GMC формата : Без точки перехода
    Параметр матрицы формата : Выборочная
    Идентификатор кодека : XVID
    Идентификатор кодека/Подсказка : XviD
    Продолжительность : 1 ч. 37 м.
    Битрейт : 942 Кбит/сек
    Ширина : 656 пикселей
    Высота : 352 пикселя
    Соотношение сторон : 1, 85: 1
    Частота кадров : 23, 976 (24000/1001) кадра/сек
    Цветовое пространство : YUV
    Субдискретизация насыщенности : 4: 2: 0
    Битовая глубина : 8 бит
    Тип развёртки : Прогрессивная
    Метод сжатия : С потерями
    Бит/(Пиксели*Кадры) : 0.170
    Размер потока : 656 Мбайт (88%)
    Библиотека кодирования : XviD 73
    Аудио
    Идентификатор : 1
    Формат : MPEG Audio
    Версия формата : Version 1
    Профиль формата : Layer 3
    Идентификатор кодека : 55
    Идентификатор кодека/Подсказка : MP3
    Продолжительность : 1 ч. 37 м.
    Вид битрейта : Постоянный
    Битрейт : 128 Кбит/сек
    Каналы : 2 канала
    Частота : 48, 0 КГц
    Метод сжатия : С потерями
    Размер потока : 89, 0 Мбайт (12%)
    Выравнивание : Соединение по промежуткам
    Продолжительность промежутка : 167 мс. (4, 00 видеокадра)
    Время предзагрузки промежутка : 216 мс.
    Библиотека кодирования : LAME3.99r
    Настройки программы : -m s -V 4 -q 2 -lowpass 17 -b 128

    Скриншоты для ознакомления



    Все одноименные релизы в Клубе
    Время раздачи: 24/7 (до появления первых 3-5 скачавших)


    Онлайн видео В гостях у Элис



    В гостях у Элис/Home Again (2017) HDRip
    загрузка...
    Рейтинг →
     (голосов: 1, оценка 5/5, голосовать можно 1 раз )

    Другие торренты по теме:

  • В гостях у Элис / Home Again (2017) WEB-DLRip [H.264 / 1080p-LQ] [MVO] [AD]
  • В гостях у Элис / Home Again (2017) WEB-DLRip [MVO] [AD]
  • В гостях у Элис / Home Again (2017) BDRip [H.264 / 1080p] [PR]
  • В гостях у Элис / Home Again (2017) WEB-DLRip
  • В гостях у Элис / Home Again (2017) WEB-DL [H.264 / 1080p-LQ]
  • В гостях у Элис / Home Again (2017) WEB-DL [720p] ATV
  • В гостях у Элис / Home Again (2017) WEB-DL [1080p] ATV
  • В гостях у Элис / Home Again (2017) BDRip [H.264]


    • Комментарии (0):

      Информация

      Информация

        Посетители, находящиеся в группе Гости, не могут оставлять комментарии в данной новости.

        ↓ Меню




        ↓ Опрос

        Вы добавили сайт в закладки?
        Да
        Нет


        Top 10 за месяц (Фильмы)