.
Авторизация | Регистрация
Хочешь лучшие торренты? Добавь свой email!
Добавить

Торрент скачать бесплатно

» » Ночной сторож / Nattevagten (1994) BDRip [H.264] [MVO] торрент скачать бесплатно




    Ночной сторож / Nattevagten (1994) BDRip [H.264] [MVO] торрент скачать бесплатно

    Опубликовал: Админ | Дата: 30-11-2017, 05:00 | Просмотров: 0

    Производство: Дания/Det Danske Filminstitut, DR Fiktion, Obel Film
    Жанр: Триллер
    Режиссер: Уле Борнедаль

    Актеры
    Николай Костер-Вальдау, Софи Гробёль, Ким Бодниа, Лотти Андерсен, Рикке Луиз Андерссон, Стиг Хоффмайер, Гирд Лофквист, Нильс Андерс Торн

    Описание

    Студент Мартин решил немного подработать. Для этой цели он нашел себе нехлопотное, спокойное и очень тихое место сторожа в морге. Конечно, немного страшновато, но ведь никто не мешает готовиться к занятиям, не отвлекает. Не отвлекает? Если бы так!
    Оказывается, именно сюда привозят трупы несчастных девушек, изуродованных кровожадным маньяком, держащим в страхе весь город. В морге начинают происходить странные вещи. В безмолвный мир мертвых вторгаются живые, и становится действительно жутко. Ведь мертвые не могут себя защитить.

    Возраст: 16+ (зрителям, достигшим 16 лет)
    Рейтинг MPAA: R (лицам до 17 лет обязательно присутствие взрослого)
    Релиз от: All Films
    Продолжительность: 01: 47: 20
    Качество видео: BDRip
    Перевод: Двуголосый закадровый
    Субтитры: отсутствуют
    Видео: AVC/H.264, 864x466, ~1754 Kbps
    Аудио: AC3, 2 ch, 192 Kbps

    General
    Unique ID : 251585013943183289279642615621246129130 (0xBD4582DD6D9C5C9B844A4354671A13EA)
    Complete name : /media/win/TORRENT/UPLOAD TORRENTS/Nochnoi_storozsh_(1994)_BDRip-AVC.mkv
    Format : Matroska
    Format version : Version 4/Version 2
    File size : 1.46 GiB
    Duration : 1 h 47 min
    Overall bit rate : 1 948 kb/s
    Movie name : Ночной сторож/Nattevagten/Nightwatch (1994) HDRip-AVC | VIRUS All.FilmsRG .org
    Encoded date : UTC 2016-08-31 10: 32: 13
    Writing application : mkvmerge v7.5.0 (\'Glass Culture\') 32bit built on Jan 10 2015 09: 41: 31
    Writing library : libebml v1.3.1 + libmatroska v1.4.2
    Video
    ID : 1
    Format : AVC
    Format/Info : Advanced Video Codec
    Format profile : High@L4.1
    Format settings : CABAC/10 Ref Frames
    Format settings, CABAC : Yes
    Format settings, ReFrames : 10 frames
    Codec ID : V_MPEG4/ISO/AVC
    Duration : 1 h 47 min
    Bit rate : 1 754 kb/s
    Width : 864 pixels
    Height : 466 pixels
    Display aspect ratio : 1.85: 1
    Frame rate mode : Constant
    Frame rate : 23.976 (24000/1001) FPS
    Color space : YUV
    Chroma subsampling : 4: 2: 0
    Bit depth : 8 bits
    Scan type : Progressive
    Bits/(Pixel*Frame) : 0.182
    Stream size : 1.31 GiB (90%)
    Writing library : x264 core 148 r2638kMod 7599210
    Encoding settings : cabac=1/ref=10/deblock=1: -2: -1/analyse=0x3: 0x113/me=umh/subme=11/psy=1/fade_compensate=0.00/psy_rd=1.00: 0.00/mixed_ref=1/me_range=38/chroma_me=1/trellis=2/8x8dct=1/cqm=0/deadzone=21, 11/fast_pskip=0/chroma_qp_offset=-2/threads=6/lookahead_threads=1/sliced_threads=0/nr=0/decimate=0/interlaced=0/bluray_compat=0/constrained_intra=0/fgo=0/bframes=10/b_pyramid=2/b_adapt=2/b_bias=0/direct=3/weightb=1/open_gop=0/weightp=2/keyint=240/keyint_min=23/scenecut=40/intra_refresh=0/rc_lookahead=60/rc=2pass/mbtree=0/bitrate=1754/ratetol=1.0/qcomp=0.60/qpmin=0/qpmax=69/qpstep=4/cplxblur=20.0/qblur=0.5/vbv_maxrate=50000/vbv_bufsize=62500/nal_hrd=none/filler=0/ip_ratio=1.40/pb_ratio=1.30/aq=3: 1.00/zones=151700, 154410, q=30
    Default : Yes
    Forced : No
    Audio
    ID : 2
    Format : AC-3
    Format/Info : Audio Coding 3
    Codec ID : A_AC3
    Duration : 1 h 47 min
    Bit rate mode : Constant
    Bit rate : 192 kb/s
    Channel(s) : 2 channels
    Channel positions : Front: L R
    Sampling rate : 48.0 kHz
    Frame rate : 31.250 FPS (1536 SPF)
    Bit depth : 16 bits
    Compression mode : Lossy
    Stream size : 147 MiB (10%)
    Title : DVO
    Language : Russian
    Service kind : Complete Main
    Default : Yes
    Forced : No

    Скриншоты для ознакомления



    Все одноименные релизы в Клубе
    Время раздачи: с 09: 00 до 22: 00 до пяти скачавших (до появления первых 3-5 скачавших)


    Онлайн видео Ночной сторож



    Ночной сторож/Nattevagten (1994) BDRip [H.264] [MVO]
    загрузка...
    Рейтинг →
     (голосов: 1, оценка 3/5, голосовать можно 1 раз )

    Другие торренты по теме:

  • Ночной сторож / Nattevagten (1994) HDRip
  • Ночной сторож / Nattevagten (1994) BDRemux [H.264 / 1080p]
  • Ночной сторож / Nattevagten (1994) BDRip [H.264 / 720p]
  • Ночной сторож / The Night Watchman (2016) DVDRip [VO]
  • Ночной сторож / The Night Watchman (2016) DVDRip


    • Комментарии (0):

      Информация

      Информация

        Посетители, находящиеся в группе Гости, не могут оставлять комментарии в данной новости.

        ↓ Меню




        ↓ Опрос

        Вы добавили сайт в закладки?
        Да
        Нет


        Top 10 за месяц (Фильмы)