.
Авторизация | Регистрация
Хочешь лучшие торренты? Добавь свой email!
Добавить

Торрент скачать бесплатно

» » Запретный мир / Forbidden World (1982) BDRip [H.264] [AVO] торрент скачать бесплатно




    Запретный мир / Forbidden World (1982) BDRip [H.264] [AVO] торрент скачать бесплатно

    Опубликовал: Админ | Дата: 30-11-2017, 05:00 | Просмотров: 0

    Производство: США/New World Pictures
    Жанр: Ужасы, Фантастика
    Режиссер: Аллан Холцман
    Продюсер: Роджер Корман, Мэри Энн Фишер

    Актеры
    Джесси Винт, Доун Данлэп, Джун Чэдвик, Линден Чайлз, Фокс Харрис, Рэй Оливер, Скотт Полин, Майкл Боуэн, Дон Оливера, Виктор Уоррен

    Описание

    На исследовательскую базу, находящуюся на одной из далеких планет, прибывает главный герой картины — крутой космический боец. Идиллическая жизнь, которой он живет поначалу (проводя время главным образом в общении с прекрасной половиной персонала станции) вдруг взрывается жутким кошмаром. Из научной лаборатории вырывается некое искусственно созданное белковое существо, начиная с нечеловеческой быстротой пожирать все и всех на своем пути…

    Возраст: 18+ (зрителям, достигшим 18 лет. запрещено для детей)
    Рейтинг MPAA: R (лицам до 17 лет обязательно присутствие взрослого)
    Релиз от: Охрана (NNMCLUB)
    Продолжительность: 01: 17: 13
    Качество видео: BDRip
    Перевод: Авторский (В. Котов, А.Гаврилов, Л. Володарский)
    Субтитры: Отсутствуют
    Видео: AVC/H.264, 1024x576, ~2750 Kbps
    Аудио 1: Русский, AC3, 2 ch, 192 Kbps, 48.0 kHz (AVO, В. Котов)
    Аудио 2: Русский, AC3, 2 ch, 192 Kbps, 48.0 kHz (AVO, А.Гаврилов)
    Аудио 3: Русский, AC3, 2 ch, 192 Kbps, 48.0 kHz (AVO, Л. Володарский)
    Аудио 4: Английский, AC3, 2 ch, 192 Kbps, 48.0 kHz (Оригинал)

    General
    Unique ID : 203838347718743243020324918039058606438 (0x9959D67800AB164D8EE2A18947E46966)
    Complete name : F: DownloadsЗапретный мир. 1982. NNMCLUB.mkv
    Format : Matroska
    Format version : Version 4/Version 2
    File size : 1.90 GiB
    Duration : 1h 17mn
    Overall bit rate : 3 521 Kbps
    Encoded date : UTC 2017-11-28 09: 14: 15
    Writing application : mkvmerge v7.0.0 (\'Where We Going\') 32bit built on Jun 9 2014 15: 08: 34
    Writing library : libebml v1.3.0 + libmatroska v1.4.1
    _STATISTICS_WRITING_APP : mkvmerge v7.0.0 (\'Where We Going\') 32bit built on Jun 9 2014 15: 08: 34
    _STATISTICS_WRITING_DATE_UTC : 2017-11-28 09: 14: 15
    _STATISTICS_TAGS : BPS DURATION NUMBER_OF_FRAMES NUMBER_OF_BYTES
    DURATION : 01: 17: 13.056000000
    NUMBER_OF_FRAMES : 144783
    NUMBER_OF_BYTES : 111193344
    Video
    ID : 1
    Format : AVC
    Format/Info : Advanced Video Codec
    Format profile : High@L4.1
    Format settings, CABAC : Yes
    Format settings, ReFrames : 9 frames
    Codec ID : V_MPEG4/ISO/AVC
    Duration : 1h 17mn
    Bit rate : 2 750 Kbps
    Width : 1 024 pixels
    Height : 576 pixels
    Display aspect ratio : 16: 9
    Frame rate mode : Constant
    Frame rate : 23.976 fps
    Color space : YUV
    Chroma subsampling : 4: 2: 0
    Bit depth : 8 bits
    Scan type : Progressive
    Bits/(Pixel*Frame) : 0.194
    Stream size : 1.45 GiB (76%)
    Title : Forbidden World
    Writing library : x264 core 125 r2208 d9d2288
    Encoding settings : cabac=1/ref=9/deblock=1: -1: -1/analyse=0x3: 0x133/me=umh/subme=10/psy=1/psy_rd=1.00: 0.10/mixed_ref=1/me_range=32/chroma_me=1/trellis=2/8x8dct=1/cqm=0/deadzone=21, 11/fast_pskip=0/chroma_qp_offset=-3/threads=6/lookahead_threads=1/sliced_threads=0/nr=0/decimate=0/interlaced=0/bluray_compat=0/constrained_intra=0/bframes=7/b_pyramid=2/b_adapt=2/b_bias=0/direct=3/weightb=1/open_gop=0/weightp=2/keyint=250/keyint_min=25/scenecut=40/intra_refresh=0/rc_lookahead=60/rc=2pass/mbtree=1/bitrate=2750/ratetol=1.0/qcomp=0.60/qpmin=0/qpmax=69/qpstep=4/cplxblur=20.0/qblur=0.5/ip_ratio=1.40/aq=1: 1.00
    Language : English
    Default : Yes
    Forced : No
    Audio #1
    ID : 2
    Format : AC-3
    Format/Info : Audio Coding 3
    Mode extension : CM (complete main)
    Format settings, Endianness : Big
    Codec ID : A_AC3
    Duration : 1h 17mn
    Bit rate mode : Constant
    Bit rate : 192 Kbps
    Channel(s) : 2 channels
    Channel positions : Front: L R
    Sampling rate : 48.0 KHz
    Bit depth : 16 bits
    Compression mode : Lossy
    Stream size : 106 MiB (5%)
    Title : Авторский, В. Котов
    Language : Russian
    Default : No
    Forced : No
    Audio #2
    ID : 3
    Format : AC-3
    Format/Info : Audio Coding 3
    Mode extension : CM (complete main)
    Format settings, Endianness : Big
    Codec ID : A_AC3
    Duration : 1h 17mn
    Bit rate mode : Constant
    Bit rate : 192 Kbps
    Channel(s) : 2 channels
    Channel positions : Front: L R
    Sampling rate : 48.0 KHz
    Bit depth : 16 bits
    Compression mode : Lossy
    Stream size : 106 MiB (5%)
    Title : Авторский, А.Гаврилов
    Language : Russian
    Default : No
    Forced : No
    Audio #3
    ID : 4
    Format : AC-3
    Format/Info : Audio Coding 3
    Mode extension : CM (complete main)
    Format settings, Endianness : Big
    Codec ID : A_AC3
    Duration : 1h 17mn
    Bit rate mode : Constant
    Bit rate : 192 Kbps
    Channel(s) : 2 channels
    Channel positions : Front: L R
    Sampling rate : 48.0 KHz
    Bit depth : 16 bits
    Compression mode : Lossy
    Stream size : 106 MiB (5%)
    Title : Авторский, Л. Володарский
    Language : Russian
    Default : No
    Forced : No
    Audio #4
    ID : 5
    Format : AC-3
    Format/Info : Audio Coding 3
    Mode extension : CM (complete main)
    Format settings, Endianness : Big
    Codec ID : A_AC3
    Duration : 1h 17mn
    Bit rate mode : Constant
    Bit rate : 192 Kbps
    Channel(s) : 2 channels
    Channel positions : Front: L R
    Sampling rate : 48.0 KHz
    Bit depth : 16 bits
    Compression mode : Lossy
    Stream size : 106 MiB (5%)
    Title : Оригинал
    Language : English
    Default : No
    Forced : No

    Скриншоты для ознакомления




    Все одноименные релизы в Клубе
    Время раздачи: с 13: 00 до 01: 00 МСК, выходные круглосуточно (до появления первых 3-5 скачавших)


    Онлайн видео Запретный мир



    Запретный мир/Forbidden World (1982) BDRip [H.264] [AVO]
    загрузка...
    Рейтинг →
     (голосов: 1, оценка 5/5, голосовать можно 1 раз )

    Другие торренты по теме:

  • Китай. Запретный город / The Forbidden City (2005) SATRip (серии 1-9 из 9)


    • Комментарии (0):

      Информация

      Информация

        Посетители, находящиеся в группе Гости, не могут оставлять комментарии в данной новости.

        ↓ Меню




        ↓ Опрос

        Вы добавили сайт в закладки?
        Да
        Нет


        Top 10 за месяц (Фильмы)