.
Авторизация | Регистрация
Хочешь лучшие торренты? Добавь свой email!
Добавить

Торрент скачать бесплатно

» » Черное солнце: Бойня в Нанкине / Hei tai yang: Nan Jing da tu sha (1995) DVDRip [AVO] торрент скачать бесплатно




    Черное солнце: Бойня в Нанкине / Hei tai yang: Nan Jing da tu sha (1995) DVDRip [AVO] торрент скачать бесплатно

    Опубликовал: Админ | Дата: 30-11-2017, 05:00 | Просмотров: 0

    Производство: Гонконг/T.F. Film Company
    Жанр: Драма, Военный
    Режиссер: Тун Фей Моу

    Актеры
    Лианг Чжан, Юнг Пан, Хуа Шао, Минг Чианг, Лианг Чоу, Джереми В. Кливер, Кэтлин Де Бур

    Описание

    Несмотря на то, что миру больше известны зверства, которые творили фашисты на оккупированных территориях, их союзники японцы, не отставали от них даже в этом (скорее, даже обогнали). Настоящему геноциду подверглось китайское население оккупированных японцами территорий.
    Особенно печально известна бойня в Нанкине в 1937 году, когда за очень короткое время было вырезано более 300 000 китайцев. Людям отрубали головы мечом, протыкали штыками, расстреливали и сбрасывали в реку Янцзы. Было изнасиловано около 20 000 женщин (от девочек до старух), часто после этого женщин рубили на части.

    Не рекомендуется к просмотру лицам до 21 года и лицам со слабой психикой!


    Возраст: 18+ (зрителям, достигшим 18 лет. запрещено для детей)
    Продолжительность: 01: 30: 44
    Качество видео: DVDRip
    Перевод: Одноголосый закадровый, авторский (Андрей Дольский)
    Субтитры: отсутствуют
    Видео: Xvid, 704x400, ~2072 Kbps
    Аудио: MP3, 2 ch, 100 Kbps

    General
    Complete name : /media/win/TORRENT/UPLOAD TORRENTS/The.Nankin.Massacre.1995.VO.DVDRip.avi
    Format : AVI
    Format/Info : Audio Video Interleave
    File size : 1.38 GiB
    Duration : 1 h 30 min
    Overall bit rate mode : Variable
    Overall bit rate : 2 182 kb/s
    Video
    ID : 0
    Format : MPEG-4 Visual
    Format profile : Advanced Simple@L5
    Format settings : BVOP1
    Format settings, BVOP : 1
    Format settings, QPel : No
    Format settings, GMC : No warppoints
    Format settings, Matrix : Default (H.263)
    Muxing mode : Packed bitstream
    Codec ID : XVID
    Codec ID/Hint : XviD
    Duration : 1 h 30 min
    Bit rate : 2 072 kb/s
    Width : 704 pixels
    Height : 400 pixels
    Display aspect ratio : 16: 9
    Frame rate : 23.976 (24000/1001) FPS
    Color space : YUV
    Chroma subsampling : 4: 2: 0
    Bit depth : 8 bits
    Scan type : Progressive
    Compression mode : Lossy
    Bits/(Pixel*Frame) : 0.307
    Stream size : 1.31 GiB (95%)
    Writing library : XviD 1.2.1 (UTC 2008-12-04)
    Audio
    ID : 1
    Format : MPEG Audio
    Format version : Version 1
    Format profile : Layer 3
    Codec ID : 55
    Codec ID/Hint : MP3
    Duration : 1 h 30 min
    Bit rate mode : Variable
    Bit rate : 100.0 kb/s
    Channel(s) : 2 channels
    Sampling rate : 44.1 kHz
    Frame rate : 38.281 FPS (1152 SPF)
    Compression mode : Lossy
    Stream size : 63.9 MiB (5%)
    Alignment : Aligned on interleaves
    Interleave, duration : 26 ms (0.63 video frame)
    Interleave, preload duration : 3488 ms
    Writing library : LAME3.97
    Encoding settings : -m s -V 5 -q 3 -lowpass 15.1 --abr 100-m s -V 5 -q 3 -lowpass 15.1 --abr 100-m s -V 5 -q 3 -lowpass 15.1 --abr 100


    Онлайн видео Черное солнце: Бойня в Нанкине



    Черное солнце: Бойня в Нанкине/Hei tai yang: Nan Jing da tu sha (1995) DVDRip [AVO]
    загрузка...
    Рейтинг →
     (голосов: 1, оценка 4/5, голосовать можно 1 раз )

    Другие торренты по теме:

  • Александр Авраменко и др. | Черное Солнце [Трилогия] (2015) [FB2] скачать через торрент бесплатно
  • Myths of the World 11: The Black Sun / Мифы народов мира 11: Черное солнце (2017) [Ru] (1.0) Unofficial [Collectors Edition / Коллекционное издание]


    • Комментарии (0):

      Информация

      Информация

        Посетители, находящиеся в группе Гости, не могут оставлять комментарии в данной новости.

        ↓ Меню




        ↓ Опрос

        Вы добавили сайт в закладки?
        Да
        Нет


        Top 10 за месяц (Фильмы)