.
Авторизация | Регистрация
Хочешь лучшие торренты? Добавь свой email!
Добавить

Торрент скачать бесплатно

» » День да ночь (1970) TVRip торрент скачать бесплатно




    День да ночь (1970) TVRip торрент скачать бесплатно

    Опубликовал: Админ | Дата: 30-11-2017, 05:00 | Просмотров: 0

    Производство: CCCР/Беларусьфильм
    Жанр: Драма
    Режиссер: Диамара Нижниковская

    Актеры
    Ольга Сошникова, Анатолий Антосевич, Александра Климова, Надежда Семенцова, Лев Золотухин, Виолетта Жухимович, Сергей Пижель, Любовь Малиновская, Светлана Мазовецкая, Любовь Соколова

    Описание

    Сутки — невеликая мера времени, но 22 июня… Молодые герои фильма сумели почувствовать и грозные отголоски войны, начавшейся в такой же день 29 лет назад, и свою ответственность за безмятежность мирных будней, и радость встречи с первым глубоким чувством, и необходимость всегда быть вместе, что бы ни случилось…

    Возраст: 16+ (зрителям, достигшим 16 лет)
    Релиз от: Алехаndr
    Продолжительность: 01: 05: 43
    Качество видео: TVRip
    Субтитры: Отсутствуют
    Видео: Xvid, 720x544 (4: 3), ~1295 Kbps
    Аудио: MP3, 2 ch, 192 Kbps

    Общее
    Полное имя : D: День да ночь (1970).by.Алехаndr.avi
    Формат : AVI
    Формат/Информация : Audio Video Interleave
    Размер файла : 704 Мбайт
    Продолжительность : 1 ч. 5 м.
    Общий поток : 1498 Кбит/сек
    Программа кодирования : VirtualDubMod 1.5.10.3 |www.virtualdub-fr.org|| (build 2550/release)
    Библиотека кодирования : VirtualDubMod build 2550/release
    Видео
    Идентификатор : 0
    Формат : MPEG-4 Visual
    Профиль формата : Advanced Simple@L5
    Настройки формата : BVOP1/Custom Matrix
    Параметр BVOP формата : 1
    Параметр QPel формата : Нет
    Параметр GMC формата : Без точки перехода
    Параметр матрицы формата : Выборочная
    Идентификатор кодека : XVID
    Идентификатор кодека/Подсказка : XviD
    Продолжительность : 1 ч. 5 м.
    Битрейт : 1296 Кбит/сек
    Ширина : 720 пикселей
    Высота : 544 пикселя
    Соотношение сторон : 4: 3
    Частота кадров : 25, 000 кадров/сек
    Цветовое пространство : YUV
    Субдискретизация насыщенности : 4: 2: 0
    Битовая глубина : 8 бит
    Тип развёртки : Прогрессивная
    Метод сжатия : С потерями
    Бит/(Пиксели*Кадры) : 0.132
    Размер потока : 609 Мбайт (87%)
    Библиотека кодирования : XviD 1.2.1 (UTC 2008-12-04)
    Аудио
    Идентификатор : 1
    Формат : MPEG Audio
    Версия формата : Version 1
    Профиль формата : Layer 3
    Идентификатор кодека : 55
    Идентификатор кодека/Подсказка : MP3
    Продолжительность : 1 ч. 5 м.
    Вид битрейта : Постоянный
    Битрейт : 192 Кбит/сек
    Каналы : 2 канала
    Частота : 48, 0 КГц
    Частота кадров : 41, 667 кадра/сек (1152 SPF)
    Метод сжатия : С потерями
    Размер потока : 90, 3 Мбайт (13%)
    Выравнивание : Соединение по промежуткам
    Продолжительность промежутка : 40 мс. (1, 00 видеокадр)
    Время предзагрузки промежутка : 504 мс.
    Библиотека кодирования : LAME3.99r
    Настройки программы : -m s -V 4 -q 0 -lowpass 18.6 -b 192

    Скриншоты для ознакомления



    Все одноименные релизы в Клубе
    Время раздачи: 24/7 (круглосуточно) (до появления первых 3-5 скачавших)


    День да ночь (1970) TVRip
    загрузка...
    Рейтинг →
     (голосов: 1, оценка 3/5, голосовать можно 1 раз )

    Другие торренты по теме:

  • Сидни Шелдон | Утро, день, ночь (2015) [MP3]
  • Один день, одна ночь (2015) SATRip [H.264] (1-4 серия из 4) скачать через торрент бесплатно
  • Один день, одна ночь (2015) SATRip (серии 1-4 из 4) скачать через торрент бесплатно
  • Татьяна Устинова | Один день, одна ночь (2016) [MP3]
  • Сара Райнер | Другой день, другая ночь (2016) [FB2]
  • Шестой день, седьмая ночь - Финал / Gackt Live Tour 2004: The Sixth Day and Seventh Night - Final (2004) DVDRip
  • Один день, одна ночь (2015) WEB-DLRip [H.264 / 720p-LQ] (серии 1-4 из 4)
  • Один день, одна ночь (2015) WEB-DLRip [H.264 / 1080p-LQ] (серии 1-4 из 4)


    • Комментарии (0):

      Информация

      Информация

        Посетители, находящиеся в группе Гости, не могут оставлять комментарии в данной новости.

        ↓ Меню




        ↓ Опрос

        Вы добавили сайт в закладки?
        Да
        Нет


        Top 10 за месяц (Фильмы)