.
Авторизация | Регистрация
Хочешь лучшие торренты? Добавь свой email!
Добавить

Торрент скачать бесплатно

» » Пипец / Kick-Ass (2010) UHD BDRemux [H.265 / 2160p] [4K, HDR, 10-bit] торрент скачать бесплатно




    Пипец / Kick-Ass (2010) UHD BDRemux [H.265 / 2160p] [4K, HDR, 10-bit] торрент скачать бесплатно

    Опубликовал: Админ | Дата: 30-11-2017, 05:00 | Просмотров: 0

    Производство: Великобритания, США/Marv Films
    Жанр: боевик, триллер, комедия, криминал
    Режиссер: Мэттью Вон
    Продюсер: Адам Болинг, Тарквин Пэк, Брэд Питт

    Актеры
    Аарон Тейлор-Джонсон, Хлоя Грейс Морец, Николас Кейдж, Марк Стронг, Кристофер Минц-Плассе, Линдси Фонсека, Омари Хардвик, Кларк Дьюк, Эван Питерс, Майкл Рисполи

    Описание

    Главный герой — школьник Дэйв Лизевски, который, вырядившись в костюм супергероя, пытается бороться с преступниками, хотя не обладает для этого никакими способностями. Параллельно два персонажа — 11-летняя девочка, которая крошит гангстеров мечом, и сынок гангстера, ведущий собственное расследование, пытаются выяснить личность Дэйва…

    Возраст: 18+ (зрителям, достигшим 18 лет. запрещено для детей)
    Рейтинг MPAA: R (лицам до 17 лет обязательно присутствие взрослого)

    Релиз от: HDRINVASION, BLUEBIRD
    Продолжительность: 01: 57: 47
    Качество: UHD BDRemux (HDR)
    Перевод: Дублированный (Лицензия R5), Авторский (одноголосый, закадровый) (Д. Пучков, Ю. Сербин, А. Матвеев, А. Карповский)
    Субтитры: Русские (Full-length: R5 v.1, R5 v.2, А. Матвеев, Е. Воронин; SDH, Colored - Е. Воронин), Украинские (Full-length), Английские
    Видео: HEVC/H.265, 3840x2160p, (16: 9), 57.2 Mb/s, 23.976 fps
    Аудио: DTS, 6 ch, 755 kbps - Русский, Дубляж с цензурой
    Аудио: AC3, 6 ch, 384 kbps - Русский, Дубляж без цензуры
    Аудио: AC3, 2 ch, 192 kbps - Украинский
    Аудио: AC3, 6 ch, 448 kbps - Русский, Д. Пучков с цензурой
    Аудио: AC3, 6 ch, 448 kbps - Русский, Д. Пучков без цензуры
    Аудио: DTS-HD MA, 8 ch, 4894 kbps - Русский, Ю. Сербин
    Аудио: DTS-HD MA, 8 ch, 4985 kbps - Русский, А. Матвеев
    Аудио: DTS-HD MA, 8 ch, 4895 kbps - Русский, А. Карповский
    Аудио: TrueHD-Atmos, 8 ch, 4854 kbps - Английский
    Исходный диск на Blu-ray.com
    Просмотр 4K HDR-контента на ПК
    Video
    ID : 1
    Format : HEVC
    Format/Info : High Efficiency Video Coding
    Format profile : Main10@L5.1@High
    Codec ID : V_MPEGH/ISO/HEVC
    Duration : 1 h 57 min
    Bit rate : 57.2 Mb/s
    Width : 3 840 pixels
    Height : 2 160 pixels
    Display aspect ratio : 16: 9
    Frame rate mode : Constant
    Frame rate : 23.976 (24000/1001) FPS
    Color space : YUV
    Chroma subsampling : 4: 2: 0 (Type 2)
    Bit depth : 10 bits
    Bits/(Pixel*Frame) : 0.288
    Stream size : 47.1 GiB (72%)
    Title : KICK_ASS_BD_UHD_HDR_REMUX-BLUEBIRD
    Default : Yes
    Forced : No
    Color range : Limited
    Color primaries : BT.2020
    Transfer characteristics : PQ
    Matrix coefficients : BT.2020 non-constant
    Mastering display color pri : R: x=0.680000 y=0.320000, G: x=0.265000 y=0.690000, B: x=0.150000 y=0.060000, White point: x=0.312700 y=0.329000
    Mastering display luminance : min: 0.0050 cd/m2, max: 1000.0000 cd/m2
    Maximum Content Light Level : 1000 cd/m2
    Maximum Frame-Average Light : 266 cd/m2
    Audio #1
    ID : 2
    Format : DTS
    Format/Info : Digital Theater Systems
    Mode : 16
    Format settings, Endianness : Big
    Codec ID : A_DTS
    Duration : 1 h 57 min
    Bit rate mode : Constant
    Bit rate : 755 kb/s
    Channel(s) : 6 channels
    Channel positions : Front: L C R, Side: L R, LFE
    Sampling rate : 48.0 kHz
    Frame rate : 93.750 FPS (512 SPF)
    Bit depth : 24 bits
    Compression mode : Lossy
    Stream size : 635 MiB (1%)
    Title : DUB DTS 5.1 @ 768 kbps (Censored)
    Language : Russian
    Default : Yes
    Forced : No
    Audio #2
    ID : 3
    Format : AC-3
    Format/Info : Audio Coding 3
    Format settings, Endianness : Big
    Codec ID : A_AC3
    Duration : 1 h 57 min
    Bit rate mode : Constant
    Bit rate : 384 kb/s
    Channel(s) : 6 channels
    Channel positions : Front: L C R, Side: L R, LFE
    Sampling rate : 48.0 kHz
    Frame rate : 31.250 FPS (1536 SPF)
    Bit depth : 16 bits
    Compression mode : Lossy
    Stream size : 323 MiB (0%)
    Title : DUB DD 5.1 @ 384 kbps (UnCensored)
    Language : Russian
    Service kind : Complete Main
    Default : No
    Forced : No
    Audio #3
    ID : 4
    Format : AC-3
    Format/Info : Audio Coding 3
    Format settings, Endianness : Big
    Codec ID : A_AC3
    Duration : 1 h 57 min
    Bit rate mode : Constant
    Bit rate : 192 kb/s
    Channel(s) : 2 channels
    Channel positions : Front: L R
    Sampling rate : 48.0 kHz
    Frame rate : 31.250 FPS (1536 SPF)
    Bit depth : 16 bits
    Compression mode : Lossy
    Stream size : 162 MiB (0%)
    Title : DUB DD 2.0 @ 192 kbps
    Language : Ukrainian
    Service kind : Complete Main
    Default : No
    Forced : No
    Audio #4
    ID : 5
    Format : AC-3
    Format/Info : Audio Coding 3
    Format settings, Endianness : Big
    Codec ID : A_AC3
    Duration : 1 h 57 min
    Bit rate mode : Constant
    Bit rate : 448 kb/s
    Channel(s) : 6 channels
    Channel positions : Front: L C R, Side: L R, LFE
    Sampling rate : 48.0 kHz
    Frame rate : 31.250 FPS (1536 SPF)
    Bit depth : 16 bits
    Compression mode : Lossy
    Stream size : 377 MiB (1%)
    Title : VO DD 5.1 @ 448 kbps (D. Puckov Censored)
    Language : Russian
    Service kind : Complete Main
    Default : No
    Forced : No
    Audio #5
    ID : 6
    Format : AC-3
    Format/Info : Audio Coding 3
    Format settings, Endianness : Big
    Codec ID : A_AC3
    Duration : 1 h 57 min
    Bit rate mode : Constant
    Bit rate : 448 kb/s
    Channel(s) : 6 channels
    Channel positions : Front: L C R, Side: L R, LFE
    Sampling rate : 48.0 kHz
    Frame rate : 31.250 FPS (1536 SPF)
    Bit depth : 16 bits
    Compression mode : Lossy
    Stream size : 377 MiB (1%)
    Title : VO DD 5.1 @ 448 kbps (D. Puckov UnCensored)
    Language : Russian
    Service kind : Complete Main
    Default : No
    Forced : No
    Audio #6
    ID : 7
    Format : DTS
    Format/Info : Digital Theater Systems
    Format profile : MA/Core
    Mode : 16
    Format settings, Endianness : Big
    Codec ID : A_DTS
    Duration : 1 h 57 min
    Bit rate mode : Variable/Constant
    Bit rate : 4 894 kb/s/1 509 kb/s
    Channel(s) : 8 channels/6 channels
    Channel positions : Front: L C R, Side: L R, Back: L R, LFE/Front: L C R, Side: L R, LFE
    Sampling rate : 48.0 kHz
    Frame rate : 93.750 FPS (512 SPF)
    Bit depth : 24 bits
    Compression mode : Lossless/Lossy
    Stream size : 4.03 GiB (6%)
    Title : VO DTS-HD MA 7.1 @ 4895 kbps (Y. Serbin)
    Language : Russian
    Default : No
    Forced : No
    Audio #7
    ID : 8
    Format : DTS
    Format/Info : Digital Theater Systems
    Format profile : MA/Core
    Mode : 16
    Format settings, Endianness : Big
    Codec ID : A_DTS
    Duration : 1 h 57 min
    Bit rate mode : Variable/Constant
    Bit rate : 4 985 kb/s/1 509 kb/s
    Channel(s) : 8 channels/6 channels
    Channel positions : Front: L C R, Side: L R, Back: L R, LFE/Front: L C R, Side: L R, LFE
    Sampling rate : 48.0 kHz
    Frame rate : 93.750 FPS (512 SPF)
    Bit depth : 24 bits
    Compression mode : Lossless/Lossy
    Stream size : 4.10 GiB (6%)
    Title : VO DTS-HD MA 7.1 @ 4896 kbps (A. Matveev)
    Language : Russian
    Default : No
    Forced : No
    Audio #8
    ID : 9
    Format : DTS
    Format/Info : Digital Theater Systems
    Format profile : MA/Core
    Mode : 16
    Format settings, Endianness : Big
    Codec ID : A_DTS
    Duration : 1 h 57 min
    Bit rate mode : Variable/Constant
    Bit rate : 4 895 kb/s/1 509 kb/s
    Channel(s) : 8 channels/6 channels
    Channel positions : Front: L C R, Side: L R, Back: L R, LFE/Front: L C R, Side: L R, LFE
    Sampling rate : 48.0 kHz
    Frame rate : 93.750 FPS (512 SPF)
    Bit depth : 24 bits
    Compression mode : Lossless/Lossy
    Stream size : 4.03 GiB (6%)
    Title : VO DTS-HD MA 7.1 @ 4896 kbps (A. Karpovskij)
    Language : Russian
    Default : No
    Forced : No
    Audio #9
    ID : 10
    Format : TrueHD
    Format profile : TrueHD+Atmos/TrueHD
    Codec ID : A_TRUEHD
    Duration : 1 h 57 min
    Bit rate mode : Variable
    Bit rate : 4 854 kb/s
    Maximum bit rate : 9 444 kb/s
    Channel(s) : Object Based/8 channels
    Channel positions : Object Based/Front: L C R, Side: L R, Back: L R, LFE
    Sampling rate : /48.0 kHz
    Frame rate : 1 200.000 FPS (40 SPF)
    Compression mode : Lossless
    Stream size : 3.99 GiB (6%)
    Title : ORIGINAL ATMOS 7.1 @ 5494 kbps
    Language : English
    Default : No
    Forced : No
    Text #1
    ID : 11
    Format : UTF-8
    Codec ID : S_TEXT/UTF8
    Codec ID/Info : UTF-8 Plain Text
    Duration : 1 h 50 min
    Bit rate : 83 b/s
    Count of elements : 982
    Stream size : 68.1 KiB (0%)
    Title : Full-length (R5 v.1)
    Language : Russian
    Default : No
    Forced : No
    Text #2
    ID : 12
    Format : UTF-8
    Codec ID : S_TEXT/UTF8
    Codec ID/Info : UTF-8 Plain Text
    Duration : 1 h 50 min
    Bit rate : 84 b/s
    Count of elements : 982
    Stream size : 68.2 KiB (0%)
    Title : Full-length (R5 v.2)
    Language : Russian
    Default : No
    Forced : No
    Text #3
    ID : 13
    Format : UTF-8
    Codec ID : S_TEXT/UTF8
    Codec ID/Info : UTF-8 Plain Text
    Duration : 1 h 50 min
    Bit rate : 106 b/s
    Count of elements : 1318
    Stream size : 86.2 KiB (0%)
    Title : Full-length (A. Matveev)
    Language : Russian
    Default : No
    Forced : No
    Text #4
    ID : 14
    Format : UTF-8
    Codec ID : S_TEXT/UTF8
    Codec ID/Info : UTF-8 Plain Text
    Duration : 1 h 50 min
    Bit rate : 119 b/s
    Count of elements : 1338
    Stream size : 96.8 KiB (0%)
    Title : Full-length Colored (E. Voronin)
    Language : Russian
    Default : No
    Forced : No
    Text #5
    ID : 15
    Format : UTF-8
    Codec ID : S_TEXT/UTF8
    Codec ID/Info : UTF-8 Plain Text
    Duration : 1 h 50 min
    Bit rate : 100 b/s
    Count of elements : 1415
    Stream size : 81.1 KiB (0%)
    Title : SDH (E. Voronin)
    Language : Russian
    Default : No
    Forced : No
    Text #6
    ID : 16
    Format : UTF-8
    Codec ID : S_TEXT/UTF8
    Codec ID/Info : UTF-8 Plain Text
    Duration : 1 h 49 min
    Bit rate : 89 b/s
    Count of elements : 1299
    Stream size : 72.0 KiB (0%)
    Title : Full-length
    Language : Ukrainian
    Default : No
    Forced : No
    Text #7
    ID : 17
    Format : PGS
    Codec ID : S_HDMV/PGS
    Codec ID/Info : Picture based subtitle format used on BDs/HD-DVDs
    Duration : 1 h 50 min
    Bit rate : 38.4 kb/s
    Count of elements : 2640
    Stream size : 30.3 MiB (0%)
    Title : Full-length
    Language : English
    Default : No
    Forced : No
    Menu
    00: 00: 00.000 : en: Chapter 1
    00: 05: 33.541 : en: Chapter 2
    00: 15: 55.829 : en: Chapter 3
    00: 21: 10.269 : en: Chapter 4
    00: 28: 17.904 : en: Chapter 5
    00: 47: 53.161 : en: Chapter 6
    00: 52: 35.026 : en: Chapter 7
    01: 03: 17.043 : en: Chapter 8
    01: 10: 17.087 : en: Chapter 9
    01: 16: 25.330 : en: Chapter 10
    01: 25: 17.487 : en: Chapter 11
    01: 30: 26.254 : en: Chapter 12
    01: 38: 17.558 : en: Chapter 13
    01: 43: 58.190 : en: Chapter 14
    01: 47: 05.627 : en: Chapter 15
    01: 49: 47.330 : en: Chapter 16
    YouTube

    Скриншоты для ознакомления


    Релизы фильма Пипец/Kick-Ass на NNM Club
    Время раздачи: с 9: 00 до 23: 00


    Онлайн видео Пипец



    Пипец/Kick-Ass (2010) UHD BDRemux [H.265/2160p] [4K, HDR, 10-bit]
    загрузка...
    Рейтинг →
     (голосов: 1, оценка 4/5, голосовать можно 1 раз )

    Другие торренты по теме:



      Комментарии (0):

      Информация

      Информация

        Посетители, находящиеся в группе Гости, не могут оставлять комментарии в данной новости.

        ↓ Меню




        ↓ Опрос

        Вы добавили сайт в закладки?
        Да
        Нет


        Top 10 за месяц (Фильмы)