.
Авторизация | Регистрация
Хочешь лучшие торренты? Добавь свой email!
Добавить

Торрент скачать бесплатно

» » Повелитель мух / Lord of the Flies (1963) BDRip [H.265 / 1080p] [10-bit] торрент скачать бесплатно




    Повелитель мух / Lord of the Flies (1963) BDRip [H.265 / 1080p] [10-bit] торрент скачать бесплатно

    Опубликовал: Админ | Дата: 30-11-2017, 05:00 | Просмотров: 1

    Производство: Великобритания/Two Arts Ltd.
    Жанр: Драма, Приключения, Триллер
    Режиссер: Питер Брук

    Актеры
    Джеймс Обри, Том Чэпин, Хью Эдвардс, Роджер Элвин, Том Геймен, Роджер Аллан, Дэвид Бранджис, Питер Дави, Кент Флетчер, Николас Хэммонд

    Описание

    Океан без конца и без края. Необитаемый островок. Жара, пальмы, бананы, кабаны, родник чистой пресной воды - и таинственная пещера... Именно на этот островок попадает отряд мальчишек, оставшихся в живых после авиакатастрофы. Неожиданный поворот судьбы подталкивает многих из них забыть обо всем: сначала - о дисциплине и порядке, затем - о дружбе и порядочности, а в конце концов - и о самой природе человеческой.

    Рейтинг MPAA: этот продукт не был классифицирован
    Релиз от: Goor80
    Продолжительность: 01: 30: 49
    Качество видео: BDRip
    Перевод: Многоголосый закадровый (Мастер Видео Трейд), Двуголосый закадровый
    Субтитры: русские, английские
    Видео: HEVC/H.265, 1480x1080, ~10, 1 Mbps
    Аудио 1: AC3, 2 ch, 192 Kbps (русский, Мастер Видео Трейд)
    Аудио 2: AC3, 1 ch, 128 Kbps (русский)
    Аудио 3: AC3, 1 ch, 224 Kbps (английский)

    Общее
    Уникальный идентификатор : 173774773053124869037153953273872536113 (0x82BBCDCC677B3245A9542E6903C25231)
    Полное имя : E: VideoПовелитель мух (Lord Of The Flies)Повелитель мух (Lord of the Flies) 1963.mkv
    Формат : Matroska
    Версия формата : Version 4/Version 2
    Размер файла : 6, 74 Гбайт
    Продолжительность : 1 ч. 30 м.
    Общий поток : 10, 6 Мбит/сек
    Название фильма : Повелитель мух/Lord of the Flies 1963
    Дата кодирования : UTC 2017-11-09 08: 31: 00
    Программа кодирования : mkvmerge v17.0.0 (\'Be Ur Friend\') 64-bit
    Библиотека кодирования : libebml v1.3.5 + libmatroska v1.4.8
    Авторское право : Encoded by Goor80
    Обложка : Yes
    Attachments : cover.jpg
    Released by : Buba5473 for NNM-Club
    Видео
    Идентификатор : 1
    Формат : HEVC
    Формат/Информация : High Efficiency Video Coding
    Профиль формата : Main 10@L4@High
    Идентификатор кодека : V_MPEGH/ISO/HEVC
    Продолжительность : 1 ч. 30 м.
    Битрейт : 10, 1 Мбит/сек
    Ширина : 1480 пикселей
    Высота : 1080 пикселей
    Соотношение сторон : 1, 370
    Режим частоты кадров : Постоянный
    Частота кадров : 23, 976 (24000/1001) кадра/сек
    Цветовое пространство : YUV
    Субдискретизация насыщенности : 4: 2: 0
    Битовая глубина : 10 бит
    Бит/(Пиксели*Кадры) : 0.263
    Размер потока : 6, 39 Гбайт (95%)
    Default : Да
    Forced : Нет
    Аудио #1
    Идентификатор : 2
    Формат : AC-3
    Формат/Информация : Audio Coding 3
    Параметр Endianness формата : Big
    Идентификатор кодека : A_AC3
    Продолжительность : 1 ч. 30 м.
    Вид битрейта : Постоянный
    Битрейт : 192 Кбит/сек
    Каналы : 2 канала
    Расположение каналов : Front: L R
    Частота : 48, 0 КГц
    Частота кадров : 31, 250 кадров/сек (1536 spf)
    Битовая глубина : 16 бит
    Метод сжатия : С потерями
    Размер потока : 125 Мбайт (2%)
    Заголовок : Перевод: Профессиональный (многоголосый закадровый) | Мастер-Видео Трейд
    Язык : Russian
    ServiceKind/String : Complete Main
    Default : Да
    Forced : Нет
    Аудио #2
    Идентификатор : 3
    Формат : AC-3
    Формат/Информация : Audio Coding 3
    Параметр Endianness формата : Big
    Идентификатор кодека : A_AC3
    Продолжительность : 1 ч. 30 м.
    Вид битрейта : Постоянный
    Битрейт : 128 Кбит/сек
    Каналы : 1 канал
    Расположение каналов : Front: C
    Частота : 48, 0 КГц
    Частота кадров : 31, 250 кадров/сек (1536 spf)
    Битовая глубина : 16 бит
    Метод сжатия : С потерями
    Размер потока : 83, 1 Мбайт (1%)
    Заголовок : Перевод: Профессиональный (двухголосый закадровый)
    Язык : Russian
    ServiceKind/String : Complete Main
    Default : Нет
    Forced : Нет
    Аудио #3
    Идентификатор : 4
    Формат : AC-3
    Формат/Информация : Audio Coding 3
    Параметр Endianness формата : Big
    Идентификатор кодека : A_AC3
    Продолжительность : 1 ч. 30 м.
    Вид битрейта : Постоянный
    Битрейт : 224 Кбит/сек
    Каналы : 1 канал
    Расположение каналов : Front: C
    Частота : 48, 0 КГц
    Частота кадров : 31, 250 кадров/сек (1536 spf)
    Битовая глубина : 16 бит
    Метод сжатия : С потерями
    Размер потока : 145 Мбайт (2%)
    Язык : English
    ServiceKind/String : Complete Main
    Default : Нет
    Forced : Нет
    Текст #1
    Идентификатор : 5
    Формат : UTF-8
    Идентификатор кодека : S_TEXT/UTF8
    Идентификатор кодека/Информация : UTF-8 Plain Text
    Продолжительность : 1 ч. 28 м.
    Битрейт : 45 бит/сек
    ElementCount : 507
    Размер потока : 29, 7 Кбайт (0%)
    Заголовок : R5
    Язык : Russian
    Default : Да
    Forced : Нет
    Текст #2
    Идентификатор : 6
    Формат : UTF-8
    Идентификатор кодека : S_TEXT/UTF8
    Идентификатор кодека/Информация : UTF-8 Plain Text
    Продолжительность : 1 ч. 22 м.
    Битрейт : 53 бит/сек
    ElementCount : 639
    Размер потока : 32, 3 Кбайт (0%)
    Заголовок : Петров
    Язык : Russian
    Default : Нет
    Forced : Нет
    Текст #3
    Идентификатор : 7
    Формат : UTF-8
    Идентификатор кодека : S_TEXT/UTF8
    Идентификатор кодека/Информация : UTF-8 Plain Text
    Продолжительность : 1 ч. 22 м.
    Битрейт : 33 бит/сек
    ElementCount : 643
    Размер потока : 20, 2 Кбайт (0%)
    Язык : English
    Default : Нет
    Forced : Нет
    XMP
    Xmp.video.FileName : E: VideoПовелитель мух (Lord Of The Flies)Повелитель мух (Lord of the Flies) 1963.mkv
    Xmp.video.FileSize : -9.53674e-007
    Xmp.video.MimeType : video/matroska
    Xmp.video.EBMLVersion : 1
    Xmp.video.EBMLReadVersion : 1
    Xmp.video.DocType : matroska
    Xmp.video.DocTypeVersion : 4
    Xmp.video.DocTypeReadVersion : 2
    Xmp.video.TimecodeScale : 0.001
    Xmp.video.MuxingApp : libebml v1.3.5 + libmatroska v1.4.8
    Xmp.video.WritingApp : mkvmerge v17.0.0 (\'Be Ur Friend\') 64-bit
    Xmp.video.Duration : 5448544
    Xmp.video.DateUTC : 531909060
    Xmp.video.Title : РџРѕРІРµРитеРСЊ РјСѓС…/Lord of the Flies 1963
    Xmp.video.TotalStream : 7
    Xmp.video.TrackLacing : No
    Xmp.video.Codec : V_MPEGH/ISO/HEVC
    Xmp.video.TrackLang : und
    Xmp.video.Width : 1480
    Xmp.video.Height : 1080
    Xmp.video.FrameRate : 23.976
    Xmp.audio.Compressor : A_AC3
    Xmp.audio.DefaultDuration : 32000
    Xmp.audio.TrackLang : rus
    Xmp.video.TrackName : Петров
    Xmp.audio.SampleRate : 48000
    Xmp.audio.ChannelType : Stereo
    Xmp.audio.DefaultOn : No
    Xmp.video.SubTTrackLacing : No
    Xmp.video.SubTCodec : S_TEXT/UTF8
    Xmp.video.SubTLang : rus
    Xmp.video.SubTDefaultOn : No
    Xmp.video.AttachFileName : cover.jpg
    Xmp.video.AttachFileMIME : image/jpeg
    Xmp.video.AttachFileUID : 7792155662282458010
    Xmp.video.AspectRatio : 4: 3
    H.265/HEVC (High Efficiency Video Coding) - это новый стандарт кодирования видео.
    *Рипы в фомате HEVC, в настоящее время не поддерживается большинством аппаратных проигрывателей.
    *Для корректного воспроизведения может потребоваться обновление ПО.
    *Стандарт H.265/HEVC является логическим продолжением стандарта H.264/AVC (Advanced Video Coding), и характеризуется более эффективными алгоритмами сжатия, а также поддержкой высокого разрешения вплоть до 8K UHD (8192x4320). Первая версия стандарта H.265 была опубликована в начале 2013 года.
    Любителям решения из коробки - установить последнюю версию на выбор:
    Media Player Classic - Black Edition (MPC-BE)
    VLC media player
    Daum Pot Player
    GOM Media Player
    Любителям WMP и других плееров, использующих по умолчанию для воспроизведения системные кодеки+сплитеры - установить K-Lite Codec Pack версии 10.1.0 и выше.
    Любимые плееры, не использующии по умолчанию для воспроизведения системные кодеки+сплитеры, нужно перенастроить на использование оных.

    Скриншоты для ознакомления



    Все одноименные релизы в Клубе
    Время раздачи: с 11: 00 до 21: 00 по Новосибирску (UTC +7) (до появления первых 3-5 скачавших)


    Онлайн видео Повелитель мух



    Повелитель мух/Lord of the Flies (1963) BDRip [H.265/1080p] [10-bit]
    загрузка...
    Рейтинг →
     (голосов: 1, оценка 5/5, голосовать можно 1 раз )

    Другие торренты по теме:

  • Повелитель Иллюзий / Lord of Illusions (1995) BDRip [Theatrical Cut]
  • Madan no Ou to Vanadis / Lord Marksman and Vanadis / Повелитель стрел и Девы войны [2014, TV, 1 из 12] HDTV 720p raw скачать через торрент бесплатно
  • History Channel. Повелитель Сипана / The Lord of Sipan (2008) HDTVRip [H.264 / 720p] скачать через торрент бесплатно
  • Повелитель иллюзий / Lord of Illusions (1995) BDRemux [1080p] [Directors Cut]
  • Повелитель иллюзий / Lord of Illusions (1995) HDRip [H.264] [Directors Cut] скачать через торрент бесплатно
  • Повелитель мух / Lord of the Flies (1963) BDRip [H.264 / 720p] [hand made colored]
  • Повелитель мух / Lord of the Flies (1963) BDRip [H.264 / 720p] [hand made colored]
  • Повелитель мух / Lord of the Flies (1963) BDRip [H.264 / 720p] [hand made colored]


    • Комментарии (0):

      Информация

      Информация

        Посетители, находящиеся в группе Гости, не могут оставлять комментарии в данной новости.

        ↓ Меню




        ↓ Опрос

        Вы добавили сайт в закладки?
        Да
        Нет


        Top 10 за месяц (Фильмы)