.
Авторизация | Регистрация
Хочешь лучшие торренты? Добавь свой email!
Добавить

Торрент скачать бесплатно

» » Дед Мороз – отморозок / Le Pere Noel est une ordure (1982) BDRip [H.264 / 1080p] торрент скачать бесплатно




    Дед Мороз – отморозок / Le Pere Noel est une ordure (1982) BDRip [H.264 / 1080p] торрент скачать бесплатно

    Опубликовал: Админ | Дата: 30-11-2017, 05:00 | Просмотров: 0

    Производство: Франция
    Жанр: Комедия
    Режиссер: Жан-Мари Пуаре

    Актеры
    Анемон, Жозиан Баласко, Мари-Анн Шазель, Кристиан Клавье, Жерар Жуньо, Тьерри Лермитт, Бруно Муано

    Описание

    Такое впечатление, что все сумасшедшие со всей Франции решили встретить Новый Год вместе. Пьер и Тереза — не вполне вменяемые операторы парижского телефона доверия. Жозетта — городская дурочка с окраины. Ее нечистый на руку дружок Феликс, подрабатывающий Дедом Морозом на улицах. А также — все, кто мимо проходил, проезжал, пробегал. Праздничек получился — мама не горюй! Кстати и без жертв не обошлось

    Продолжительность: 01: 30: 28
    Качество видео: BDRip
    Перевод: Многоголосый закадровый
    Видео: AVC/H.264, 1920x1080, ~11.8 Mb/s
    Аудио#1 : Dolby AC3 48000Hz stereo 224 kbps MVO
    Аудио#2 : Dolby AC3 48000Hz stereo 224 kbps French
    Код: выделить все

    General
    Unique ID : 200351153689493238238302029110754505171 (0x96BA3A876294CEB59A16809C8F1171D3)
    Complete name : Дед Мороз – отморозок.mkv
    Format : Matroska
    Format version : Version 4/Version 2
    File size : 7.76 GiB
    Duration : 1 h 30 min
    Overall bit rate : 12.3 Mb/s
    Movie name : Дед Мороз – отморозок (rip by smithland)
    Encoded date : UTC 2017-11-29 16:37:18
    Writing application : mkvmerge v16.0.0 (\'Protest\') 64-bit
    Writing library : libebml v1.3.5 + libmatroska v1.4.8
    Cover : Yes
    Attachments : COVER.png
    Video
    ID : 1
    Format : AVC
    Format/Info : Advanced Video Codec
    Format profile :High@L4.1
    Format settings, CABAC : Yes
    Format settings, RefFrames : 3 frames
    Format settings, GOP : M=4, N=24
    Codec ID : V_MPEG4/ISO/AVC
    Duration : 1 h 30 min
    Bit rate : 11.8 Mb/s
    Width : 1 920 pixels
    Height : 1 080 pixels
    Display aspect ratio : 16:9
    Frame rate mode : Constant
    Frame rate : 24.000 FPS
    Color space : YUV
    Chroma subsampling : 4:2:0
    Bit depth : 8 bits
    Scan type : Progressive
    Bits/(Pixel*Frame) : 0.238
    Stream size : 7.48 GiB (96%)
    Language : Russian
    Default : Yes
    Forced : Yes
    Audio #1
    ID : 2
    Format : AC-3
    Format/Info : Audio Coding 3
    Format settings, Endianness : Big
    Codec ID : A_AC3
    Duration : 1 h 30 min
    Bit rate mode : Constant
    Bit rate : 224 kb/s
    Channel(s) : 2 channels
    Channel positions : Front: L R
    Sampling rate : 48.0 kHz
    Frame rate : 31.250 FPS (1536 SPF)
    Bit depth : 16 bits
    Compression mode : Lossy
    Stream size : 145 MiB (2%)
    Language : Russian
    Service kind : Complete Main
    Default : Yes
    Forced : Yes
    Audio #2
    ID : 3
    Format : AC-3
    Format/Info : Audio Coding 3
    Format settings, Endianness : Big
    Codec ID : A_AC3
    Duration : 1 h 30 min
    Bit rate mode : Constant
    Bit rate : 224 kb/s
    Channel(s) : 2 channels
    Channel positions : Front: L R
    Sampling rate : 48.0 kHz
    Frame rate : 31.250 FPS (1536 SPF)
    Bit depth : 16 bits
    Compression mode : Lossy
    Stream size : 145 MiB (2%)
    Language : French
    Service kind : Complete Main
    Default : No
    Forced : No

    Скриншоты для ознакомления



    Все одноименные релизы в Клубе

    Время раздачи: 1200-2200


    Онлайн видео Дед Мороз – отморозок



    Дед Мороз – отморозок/Le Pere Noel est une ordure (1982) BDRip [H.264/1080p]
    загрузка...
    Рейтинг →
     (голосов: 1, оценка 3/5, голосовать можно 1 раз )

    Другие торренты по теме:

  • Дед Мороз – отморозок / Le Pere Noel est une ordure (1982) BDRip [H.264 / 1080p] скачать через торрент бесплатно


    • Комментарии (0):

      Информация

      Информация

        Посетители, находящиеся в группе Гости, не могут оставлять комментарии в данной новости.

        ↓ Меню




        ↓ Опрос

        Вы добавили сайт в закладки?
        Да
        Нет


        Top 10 за месяц (Фильмы)