.
Авторизация | Регистрация
Хочешь лучшие торренты? Добавь свой email!
Добавить

Торрент скачать бесплатно

» » Все святые / All Saints (2017) BDRip [H.264 / 720p-LQ] [MVO] [AD] торрент скачать бесплатно




    Все святые / All Saints (2017) BDRip [H.264 / 720p-LQ] [MVO] [AD] торрент скачать бесплатно

    Опубликовал: Админ | Дата: 30-11-2017, 05:00 | Просмотров: 0

    Производство: США/Affirm Films, Provident Films
    Жанр: Драма
    Режиссер: Стив Гомер

    Актеры
    Кара Буоно, Бэрри Корбин, Джон Корбетт, Дэвид Кит Грегори, Алан Уильямс, Патрик Джонсон, Шонда Пирс, Джессиджеймс Локоррьер, Нельсон Ли

    Описание

    Драматическая картина повествует трагическую историю об пасторе Майкле Сперлоке. Этот человек, совместно с группой беженцев из Юго-Восточной Азии, пошел на всё, даже поставил на кон собственную жизнь, чтобы спасти простую маленькую церковь от неминуемого закрытия.

    Рейтинг MPAA: PG (рекомендуется присутствие родителей)
    Дата мировой премьеры: 25 августа 2017
    Продолжительность: 01: 47: 35
    Качество видео: BDRip
    Перевод: Профессиональный многоголосый (Синема-Ус)
    Субтитры: Отсутствуют
    Реклама: Присутствуют вставки текстовой рекламы!
    Видео: AVC, 1280x536 (2.35: 1), 23.976 fps, 5 294 Kbps (0.322 bit/pixel)
    Аудио: AC-3, 48.0 KHz, 2 ch, 448 Kbps, CBR

    Общее
    Полное имя : D: NNMВсе святыеAll Saints 2017 BDRip 720p-LQ.mkv
    Формат : Matroska
    Версия формата : Version 2
    Размер файла : 4, 40 Гбайт
    Продолжительность : 1 ч. 47 м.
    Режим общего битрейта : Переменный
    Общий поток : 5858 Кбит/сек
    Программа кодирования : libmatroska 1.4.1
    Библиотека кодирования : SolveigMM Matroska Muxer Version 1.0.1502.31
    Видео
    Идентификатор : 1
    Формат : AVC
    Формат/Информация : Advanced Video Codec
    Профиль формата : High@L4.1
    Параметр CABAC формата : Да
    Параметр RefFrames формата : 12 кадров
    Идентификатор кодека : V_MPEG4/ISO/AVC
    Продолжительность : 1 ч. 47 м.
    Вид битрейта : Переменный
    Битрейт : 5294 Кбит/сек
    Максимальный битрейт : 6000 Кбит/сек
    Ширина : 1280 пикселей
    Высота : 536 пикселей
    Соотношение сторон : 2, 40: 1
    Режим частоты кадров : Постоянный
    Частота кадров : 23, 976 (24000/1001) кадра/сек
    Стандарт вещания : Component
    Цветовое пространство : YUV
    Субдискретизация насыщенности : 4: 2: 0
    Битовая глубина : 8 бит
    Тип развёртки : Прогрессивная
    Бит/(Пиксели*Кадры) : 0.322
    Размер потока : 3, 98 Гбайт (90%)
    Default : Нет
    Forced : Нет
    Цветовой диапазон : Limited
    Основные цвета : BT.709
    Характеристики трансфера : BT.709
    Коэффициенты матрицы : BT.709
    Аудио
    Идентификатор : 2
    Формат : AC-3
    Формат/Информация : Audio Coding 3
    Параметр Endianness формата : Big
    Идентификатор кодека : A_AC3
    Продолжительность : 1 ч. 47 м.
    Вид битрейта : Постоянный
    Битрейт : 448 Кбит/сек
    Каналы : 2 канала
    Расположение каналов : Front: L R
    Частота : 48, 0 КГц
    Частота кадров : 31, 250 кадров/сек (1536 SPF)
    Битовая глубина : 16 бит
    Метод сжатия : С потерями
    Размер потока : 345 Мбайт (8%)
    ServiceKind/String : Complete Main
    Default : Нет
    Forced : Нет

    Скриншоты для ознакомления



    Все одноименные релизы в Клубе Время раздачи: Круглосуточно до 10 скачавших


    Онлайн видео Все святые



    Все святые/All Saints (2017) BDRip [H.264/720p-LQ] [MVO] [AD]
    загрузка...
    Рейтинг →
     (голосов: 1, оценка 5/5, голосовать можно 1 раз )

    Другие торренты по теме:

  • Святые и чужие / Святые и незнакомцы / Святые на чужой земле / Saints & Strangers (2015) HDTVRip (сезон 1, серии 1 из 2) IdeaFilm (обновляемая) скачать через торрент бесплатно
  • Святые и чужие / Святые и незнакомцы / Святые на чужой земле / Saints & Strangers (2015) HDTV [H.264 / 720p-LQ] (сезон 1, серии 1 из 2) IdeaFilm (обновляемая) скачать через торрент бесплатно
  • Святые и чужие / Святые и незнакомцы / Святые на чужой земле / Saints & Strangers (2015) WEB-DL [H.264 / 720p-LQ] (сезон 1, серия 1 из 4) (BaibaKo) (обновляемая) скачать через торрент бесплатно
  • Святые и чужие / Святые и незнакомцы / Святые на чужой земле / Saints & Strangers (2015) HDTV [H.264 / 720p-LQ] (сезон 1, серии 1 из 2) NewStudio (обновляемая) скачать через торрент бесплатно
  • Святые из трущоб (Святые из Бундока) / The Boondock Saints (1999) BDRip [H.264 / 1080p] скачать через торрент бесплатно
  • Святые из бундока 2: День всех святых / The Boondock Saints II: All Saints Day (2009) BDRip [H.265 / 1080p-LQ]
  • Грешники и святые / Sinners and Saints (2010) BDRip [H.264]
  • Они были солдатами: Пустота / Святые и солдаты: Пустота / Saints and Soldiers: The Void (2014) BDRip [H.264 / 1080p-LQ] [AVO]


    • Комментарии (0):

      Информация

      Информация

        Посетители, находящиеся в группе Гости, не могут оставлять комментарии в данной новости.

        ↓ Меню




        ↓ Опрос

        Вы добавили сайт в закладки?
        Да
        Нет


        Top 10 за месяц (Фильмы)