.
Авторизация | Регистрация
Хочешь лучшие торренты? Добавь свой email!
Добавить

Торрент скачать бесплатно

» » Тюльпанная лихорадка / Tulip Fever (2017) BDRip торрент скачать бесплатно




    Тюльпанная лихорадка / Tulip Fever (2017) BDRip торрент скачать бесплатно

    Опубликовал: Админ | Дата: 30-11-2017, 05:00 | Просмотров: 1

    Производство: Великобритания, США, Paramount Pictures
    Жанр: драма, мелодрама
    Режиссер: Джастин Чадвик

    Актеры
    Алисия Викандер, Дэйн ДеХаан, Кристоф Вальц, Зак Галифианакис, Джуди Денч, Холлидей Грейнджер, Джек О’Коннелл, Мэттью Моррисон, Кара Делевинь, Том Холландер

    Описание

    Голландия, 17 век. Луковицы прекрасных цветов становятся причиной баснословного богатства или унизительной нищеты. Жители Амстердама готовы ради них на все: обман, подлог… и даже убийство. В атмосфере всеобщей тюльпаномании страсть бедного художника к молодой обольстительной жене стареющего богатого торговца может завести очень далеко.

    Возраст: 18+ (зрителям, достигшим 18 лет. запрещено для детей)
    Рейтинг MPAA: R (лицам до 17 лет обязательно присутствие взрослого)
    Дата мировой премьеры: 13 июля 2017
    Дата российской премьеры: 24 августа 2017, MEGOGO Distribution
    Релиз от: MegaPeer
    Продолжительность: 01: 44: 50
    Качество видео: BDRip
    Перевод: Дублированный (iTunes)
    Субтитры: отсутствуют
    Видео: Xvid, 720x304, ~1537 kbps
    Аудио: AC3, 6 ch, 384 kbps

    Общее
    Полное имя : D: Tulip.Fever.2017.BDRip.1.41Gb.NNM-CLUB.avi
    Формат : AVI
    Формат/Информация : Audio Video Interleave
    Размер файла : 1, 41 Гбайт
    Продолжительность : 1 ч. 44 м.
    Общий поток : 1930 Кбит/сек
    Программа кодирования : VirtualDubMod 1.5.10.2 (build 2540/release)
    Библиотека кодирования : VirtualDubMod build 2540/release
    Видео
    Идентификатор : 0
    Формат : MPEG-4 Visual
    Профиль формата : Advanced Simple@L5
    Параметр BVOP формата : 1
    Параметр QPel формата : Нет
    Параметр GMC формата : Без точки перехода
    Параметр матрицы формата : Выборочная
    Идентификатор кодека : XVID
    Идентификатор кодека/Подсказка : XviD
    Продолжительность : 1 ч. 44 м.
    Битрейт : 1537 Кбит/сек
    Ширина : 720 пикселей
    Высота : 304 пикселя
    Соотношение сторон : 2, 35: 1
    Частота кадров : 23, 976 (24000/1001) кадра/сек
    Цветовое пространство : YUV
    Субдискретизация насыщенности : 4: 2: 0
    Битовая глубина : 8 бит
    Тип развёртки : Прогрессивная
    Метод сжатия : С потерями
    Бит/(Пиксели*Кадры) : 0.293
    Размер потока : 1, 13 Гбайт (80%)
    Библиотека кодирования : XviD 73
    Аудио
    Идентификатор : 1
    Формат : AC-3
    Формат/Информация : Audio Coding 3
    Расширение режима : CM (complete main)
    Параметр Endianness формата : Big
    Идентификатор кодека : 2000
    Продолжительность : 1 ч. 44 м.
    Вид битрейта : Постоянный
    Битрейт : 384 Кбит/сек
    Каналы : 6 каналов
    Расположение каналов : Front: L C R, Side: L R, LFE
    Частота : 48, 0 КГц
    Частота кадров : 31, 250 кадров/сек (1536 spf)
    Метод сжатия : С потерями
    Размер потока : 288 Мбайт (20%)
    Выравнивание : Разделение по промежуткам
    Продолжительность промежутка : 42 мс. (1, 00 видеокадр)
    Время предзагрузки промежутка : 500 мс.

    Скриншоты для ознакомления



    Все одноименные релизы в Клубе
    Время раздачи: 24/7 до 10 скачавших


    Онлайн видео Тюльпанная лихорадка



    Тюльпанная лихорадка/Tulip Fever (2017) BDRip
    загрузка...
    Рейтинг →
     (голосов: 1, оценка 4/5, голосовать можно 1 раз )

    Другие торренты по теме:

  • Тюльпанная лихорадка / Tulip Fever (2017) BDRip [H.264 / 720p]
  • Тюльпанная лихорадка / Tulip Fever (2017) Blu-ray [H.264 / 1080p]
  • Тюльпанная лихорадка / Tulip Fever (2017) WEB-DLRip [MVO] [AD]
  • Тюльпанная лихорадка / Tulip Fever (2017) WEB-DLRip [H.264 / 1080p-LQ] [MVO] [AD]
  • Тюльпанная лихорадка / Tulip Fever (2017) BDRip [H.264 / 1080p]
  • Тюльпанная лихорадка / Tulip Fever (2017) BDRip [H.264]
  • Тюльпанная лихорадка / Tulip Fever (2017) HDRip [H.264] [MP4|640x264]
  • Тюльпанная лихорадка / Tulip Fever (2017) BDRemux [H.264 / 1080p]


    • Комментарии (0):

      Информация

      Информация

        Посетители, находящиеся в группе Гости, не могут оставлять комментарии в данной новости.

        ↓ Меню




        ↓ Опрос

        Вы добавили сайт в закладки?
        Да
        Нет


        Top 10 за месяц (Фильмы)