.
Авторизация | Регистрация
Хочешь лучшие торренты? Добавь свой email!
Добавить

Торрент скачать бесплатно

» » Наследство / Inheritance (2017) WEB-DLRip [MVO] [AD] торрент скачать бесплатно




    Наследство / Inheritance (2017) WEB-DLRip [MVO] [AD] торрент скачать бесплатно

    Опубликовал: Админ | Дата: 30-11-2017, 05:00 | Просмотров: 1

    Производство: США, Белиз/This is Just a Test Productions
    Жанр: Драма
    Режиссер: Лаура Дэвис, Джессика Кэй

    Актеры
    Марк Веббер, Джессика Кэй, Дэниэл Эхерн, Луис С. Оберлэндер, Мирна Мансанарес, Шамира Гилл-Кард

    Описание

    Молодая женщиина узнаёт, что ее живущий далеко отец умер, и возвращается с братом и новым любовником в свой дом детства в Белиз. Там ей вновь придется столнуться с прошлым, в то время, как она хватается за близость в настоящем.

    Дата мировой премьеры: 11.03.2017
    Дата российской премьеры: неизвестно
    Релиз от: KOSHARA
    Продолжительность: 01: 17: 34
    Качество видео: WEB-DLRip
    Перевод: Многоголосый закадровый, любительский (Синема УС)
    Субтитры: отсутствуют
    Реклама: присутствуют аудио и видео вставки рекламы
    Видео: Xvid, 720x400, ~1740 Kbps
    Аудио: AC3, 2 ch, 192 Kbps

    General
    Complete name : /media/win/TORRENT/UPLOAD TORRENTS/Inheritance.2017.P.WEB-DLRip.avi
    Format : AVI
    Format/Info : Audio Video Interleave
    File size : 1.16 GiB
    Duration : 1 h 17 min
    Overall bit rate : 2 134 kb/s
    Writing application : VirtualDubMod 1.5.10.2 (build 2540/release)
    Writing library : VirtualDubMod build 2540/release
    Video
    ID : 0
    Format : MPEG-4 Visual
    Format profile : Advanced Simple@L5
    Format settings : BVOP2
    Format settings, BVOP : 2
    Format settings, QPel : No
    Format settings, GMC : No warppoints
    Format settings, Matrix : Default (MPEG)
    Codec ID : XVID
    Codec ID/Hint : XviD
    Duration : 1 h 17 min
    Bit rate : 1 741 kb/s
    Width : 720 pixels
    Height : 400 pixels
    Display aspect ratio : 16: 9
    Frame rate : 23.976 (24000/1001) FPS
    Color space : YUV
    Chroma subsampling : 4: 2: 0
    Bit depth : 8 bits
    Scan type : Progressive
    Compression mode : Lossy
    Bits/(Pixel*Frame) : 0.252
    Stream size : 966 MiB (82%)
    Writing library : XviD 1.2.1 (UTC 2008-12-04)
    Audio
    ID : 1
    Format : AC-3
    Format/Info : Audio Coding 3
    Codec ID : 2000
    Duration : 1 h 17 min
    Bit rate mode : Constant
    Bit rate : 384 kb/s
    Channel(s) : 2 channels
    Channel positions : Front: L R
    Sampling rate : 48.0 kHz
    Frame rate : 31.250 FPS (1536 SPF)
    Bit depth : 16 bits
    Compression mode : Lossy
    Stream size : 213 MiB (18%)
    Alignment : Split accross interleaves
    Interleave, duration : 42 ms (1.00 video frame)
    Interleave, preload duration : 500 ms
    Service kind : Complete Main

    Скриншоты для ознакомления



    Все одноименные релизы в Клубе
    Время раздачи: с 09: 00 до 22: 00 до пяти скачавших (до появления первых 3-5 скачавших)


    Онлайн видео Наследство



    Наследство/Inheritance (2017) WEB-DLRip [MVO] [AD]
    загрузка...
    Рейтинг →
     (голосов: 1, оценка 3/5, голосовать можно 1 раз )

    Другие торренты по теме:

  • Роковое наследство (2015) HDTV [1080i] (серии 1-2 из 2) скачать через торрент бесплатно
  • Перепутанные наследники / Наследство и последствия / Splitting Heirs (1993) HDTVRip [h264] [AVO] скачать через торрент бесплатно
  • Осторожно, мошенники! Битва за наследство (2015.05.12) SATRip скачать через торрент бесплатно
  • Криминальное наследство (2015) SATRip (серии 1-4 из 4) скачать через торрент бесплатно
  • Криминальное наследство (2015) SATRip [H.264] (серии 1-4 из 4) скачать через торрент бесплатно
  • Криминальное наследство (2015) HDTVRip [H.264] (серии 1-4 из 4) скачать через торрент бесплатно
  • Криминальное наследство (2015) HDTVRip [H.264 / 720p] (серии 1-4 из 4) скачать через торрент бесплатно
  • Криминальное наследство (2015) HDTV [H.264 / 1080i] (серии 1-4 из 4) скачать через торрент бесплатно


    • Комментарии (0):

      Информация

      Информация

        Посетители, находящиеся в группе Гости, не могут оставлять комментарии в данной новости.

        ↓ Меню




        ↓ Опрос

        Вы добавили сайт в закладки?
        Да
        Нет


        Top 10 за месяц (Фильмы)