.
Авторизация | Регистрация
Хочешь лучшие торренты? Добавь свой email!
Добавить

Торрент скачать бесплатно

» » Америкосы / Americons (2017) WEB-DLRip [MVO] [AD] торрент скачать бесплатно




    Америкосы / Americons (2017) WEB-DLRip [MVO] [AD] торрент скачать бесплатно

    Опубликовал: Админ | Дата: 30-11-2017, 05:00 | Просмотров: 1

    Производство: США/Industry Artists Group, Martin Entertainment Group, Pantry Films
    Жанр: Боевик, Драма, Криминал
    Режиссер: Тео Авгеринос

    Актеры
    Бо Мартин Уильямс, Мэтт Функе, Трэй Байерс, Майкл Масини, Сэм МакМюррей, Джон Грайз, Тим Гриффин, Марлана Картер, Алишия Окс

    Описание

    Фильм повествует об ипотечном кризисе 2007 года. В центре сюжета бывший футболист Джейсон Келли, работающий вышибалой в клубе в попытках свести концы с концами. Однажды к нему обращается брокер по имени Дэвон Вайс. Он обещает ему безбедную и беззаботную жизнь, и Джейсон соглашается. Но как всем известно, бесплатный сыр бывает только в мышеловке.

    Рейтинг MPAA: R (лицам до 17 лет обязательно присутствие взрослого)
    Дата мировой премьеры: 19.01.2017
    Дата российской премьеры: неизвестно
    Релиз от: KOSHARA
    Продолжительность: 01: 26: 00
    Качество видео: WEB-DLRip
    Перевод: Многоголосый закадровый (Синема УС)
    Субтитры: отсутствуют
    Реклама: присутствуют аудио, текстовые и видео вставки рекламы
    Видео: Xvid, 720x304, ~1882 Kbps
    Аудио: AC3, 2 ch, 384 Kbps

    General
    Complete name : /media/win/TORRENT/UPLOAD TORRENTS/Americons.2017.P.WEB-DLRip.avi
    Format : AVI
    Format/Info : Audio Video Interleave
    File size : 1.37 GiB
    Duration : 1 h 26 min
    Overall bit rate : 2 275 kb/s
    Writing application : VirtualDubMod 1.5.10.2 (build 2540/release)
    Writing library : VirtualDubMod build 2540/release
    Video
    ID : 0
    Format : MPEG-4 Visual
    Format profile : Advanced Simple@L5
    Format settings : BVOP2/Custom Matrix
    Format settings, BVOP : 2
    Format settings, QPel : No
    Format settings, GMC : No warppoints
    Format settings, Matrix : Custom
    Codec ID : XVID
    Codec ID/Hint : XviD
    Duration : 1 h 26 min
    Bit rate : 1 882 kb/s
    Width : 720 pixels
    Height : 304 pixels
    Display aspect ratio : 2.35: 1
    Frame rate : 23.976 (24000/1001) FPS
    Color space : YUV
    Chroma subsampling : 4: 2: 0
    Bit depth : 8 bits
    Scan type : Progressive
    Compression mode : Lossy
    Bits/(Pixel*Frame) : 0.359
    Stream size : 1.13 GiB (83%)
    Writing library : XviD 1.2.1 (UTC 2008-12-04)
    Audio
    ID : 1
    Format : AC-3
    Format/Info : Audio Coding 3
    Codec ID : 2000
    Duration : 1 h 26 min
    Bit rate mode : Constant
    Bit rate : 384 kb/s
    Channel(s) : 2 channels
    Channel positions : Front: L R
    Sampling rate : 48.0 kHz
    Frame rate : 31.250 FPS (1536 SPF)
    Bit depth : 16 bits
    Compression mode : Lossy
    Stream size : 236 MiB (17%)
    Alignment : Split accross interleaves
    Interleave, duration : 42 ms (1.00 video frame)
    Interleave, preload duration : 500 ms
    Service kind : Complete Main

    Скриншоты для ознакомления



    Все одноименные релизы в Клубе
    Время раздачи: с 09: 00 до 22: 00 до пяти скачавших (до появления первых 3-5 скачавших)


    Онлайн видео Америкосы



    Америкосы/Americons (2017) WEB-DLRip [MVO] [AD]
    загрузка...
    Рейтинг →
     (голосов: 1, оценка 3/5, голосовать можно 1 раз )

    Другие торренты по теме:



      Комментарии (0):

      Информация

      Информация

        Посетители, находящиеся в группе Гости, не могут оставлять комментарии в данной новости.

        ↓ Меню




        ↓ Опрос

        Вы добавили сайт в закладки?
        Да
        Нет


        Top 10 за месяц (Фильмы)