.
Авторизация | Регистрация
Хочешь лучшие торренты? Добавь свой email!
Добавить

Торрент скачать бесплатно

» » Не / смотря ни на что / Mein Blind Date mit dem Leben (2017) HDRip [H.264] торрент скачать бесплатно




    Не / смотря ни на что / Mein Blind Date mit dem Leben (2017) HDRip [H.264] торрент скачать бесплатно

    Опубликовал: Админ | Дата: 30-11-2017, 05:00 | Просмотров: 1

    Производство: Германия, Seven Pictures, StudioCanal, Ziegler Cinema
    Жанр: Комедия, Драма
    Режиссер: Марк Ротемунд
    Продюсер: Симон Дж. Бухнер, Йоко Хигути-Зицман, Таня Циглер

    Актеры
    Костя Улльман, Анна-Мария Мюэ, Нилам Фарук, Людгер Пистор, Якоб Маченц, Рувен Блессинг, Йохан фон Бюлов, Герберт Фортубер, Уве Пройсс, Кида Рамадан

    Описание

    История, основанная на реальных событиях, о талантливом молодом человеке, который больше всего на свете мечтает о стажировке в самом престижном отеле Мюнхена. Ничто, даже внезапное ухудшение зрения, которое он сохраняет в тайне, не сможет встать у него на пути. Немного удачи, помощь друзей и вера в себя — вот рецепт его успеха.

    Возраст: 16+ (зрителям, достигшим 16 лет)
    Дата мировой премьеры: 26 января 2017
    Дата российской премьеры: 16 февраля 2017, Вольга
    Дата выхода DVD/Blu-ray релиза: 20 ноября 2017, НД Плэй
    Продолжительность: 01: 50: 32
    Качество видео: HDRip
    Перевод: Многоголосый закадровый, профессиональный (iTunes)
    Субтитры: Русские, немецкие
    Видео: AVC/H.264, 1024x426, ~1928 Kbps
    Аудио 1: AC3, 6 ch, 384 Kbps - Русский
    Аудио 2: AC3, 6 ch, 448 Kbps - Немецкий

    Mein.Blind.Date.mit.dem.Leben.2017.HDRip.AVC.mkv
    Формат : Matroska
    Версия формата : Version 2
    Размер файла : 2, 13 Гбайт
    Продолжительность : 1 ч. 50 м.
    Общий поток : 2762 Кбит/сек
    Название фильма : Mein Blind Date mit dem Leben 2017 from ExKinoRay
    Дата кодирования : UTC 2017-11-29 04: 28: 42
    Программа кодирования : mkvmerge v5.6.0 (\'Kenya Kane\') built on May 27 2012 16: 44: 04
    Библиотека кодирования : libebml v1.2.3 + libmatroska v1.3.0
    Видео
    Идентификатор : 1
    Формат : AVC
    Формат/Информация : Advanced Video Codec
    Профиль формата : High@L4.1
    Настройки формата : CABAC/12 Ref Frames
    Параметр CABAC формата : Да
    Параметр RefFrames формата : 12 кадров
    Идентификатор кодека : V_MPEG4/ISO/AVC
    Продолжительность : 1 ч. 50 м.
    Битрейт : 1928 Кбит/сек
    Ширина : 1024 пикселя
    Высота : 426 пикселей
    Соотношение сторон : 2, 40: 1
    Режим частоты кадров : Постоянный
    Частота кадров : 24, 000 кадра/сек
    Цветовое пространство : YUV
    Субдискретизация насыщенности : 4: 2: 0
    Битовая глубина : 8 бит
    Тип развёртки : Прогрессивная
    Бит/(Пиксели*Кадры) : 0.184
    Размер потока : 1, 45 Гбайт (68%)
    Заголовок : Enigma
    Библиотека кодирования : x264 core 152 r2851 ba24899
    Настройки программы : cabac=1/ref=12/deblock=1: -2: -2/analyse=0x3: 0x113/me=umh/subme=10/psy=1/psy_rd=1.05: 0.10/mixed_ref=1/me_range=32/chroma_me=1/trellis=2/8x8dct=1/cqm=0/deadzone=21, 11/fast_pskip=1/chroma_qp_offset=-3/threads=12/lookahead_threads=3/sliced_threads=0/nr=0/decimate=0/interlaced=0/bluray_compat=0/constrained_intra=0/bframes=10/b_pyramid=2/b_adapt=2/b_bias=0/direct=3/weightb=1/open_gop=0/weightp=2/keyint=240/keyint_min=24/scenecut=40/intra_refresh=0/rc_lookahead=40/rc=2pass/mbtree=0/bitrate=1928/ratetol=1.0/qcomp=0.60/qpmin=0/qpmax=51/qpstep=4/cplxblur=20.0/qblur=0.5/vbv_maxrate=50000/vbv_bufsize=62500/nal_hrd=none/filler=0/ip_ratio=1.40/pb_ratio=1.30/aq=1: 1.00
    Язык : English
    Default : Да
    Forced : Нет
    Цветовой диапазон : Limited
    Основные цвета : BT.709
    Характеристики трансфера : BT.709
    Коэффициенты матрицы : BT.709
    Аудио #1
    Идентификатор : 2
    Формат : AC-3
    Формат/Информация : Audio Coding 3
    Идентификатор кодека : A_AC3
    Продолжительность : 1 ч. 50 м.
    Вид битрейта : Постоянный
    Битрейт : 384 Кбит/сек
    Каналы : 6 каналов
    Расположение каналов : Front: L C R, Side: L R, LFE
    Частота : 48, 0 КГц
    Частота кадров : 31, 250 кадров/сек (1536 SPF)
    Битовая глубина : 16 бит
    Метод сжатия : С потерями
    Размер потока : 304 Мбайт (14%)
    Язык : Russian
    ServiceKind/String : Complete Main
    Default : Да
    Forced : Нет
    Аудио #2
    Идентификатор : 3
    Формат : AC-3
    Формат/Информация : Audio Coding 3
    Идентификатор кодека : A_AC3
    Продолжительность : 1 ч. 50 м.
    Вид битрейта : Постоянный
    Битрейт : 448 Кбит/сек
    Каналы : 6 каналов
    Расположение каналов : Front: L C R, Side: L R, LFE
    Частота : 48, 0 КГц
    Частота кадров : 31, 250 кадров/сек (1536 SPF)
    Битовая глубина : 16 бит
    Метод сжатия : С потерями
    Размер потока : 354 Мбайт (16%)
    Язык : German
    ServiceKind/String : Complete Main
    Default : Нет
    Forced : Нет
    Текст #1
    Идентификатор : 4
    Формат : UTF-8
    Идентификатор кодека : S_TEXT/UTF8
    Идентификатор кодека/Информация : UTF-8 Plain Text
    Язык : Russian
    Default : Нет
    Forced : Нет
    Текст #2
    Идентификатор : 5
    Формат : UTF-8
    Идентификатор кодека : S_TEXT/UTF8
    Идентификатор кодека/Информация : UTF-8 Plain Text
    Язык : German
    Default : Нет
    Forced : Нет
    Меню
    00: 00: 00.000 : en: 00: 00: 00.000
    00: 11: 36.292 : en: 00: 11: 36.292
    00: 20: 23.000 : en: 00: 20: 23.000
    00: 31: 04.042 : en: 00: 31: 04.042
    00: 41: 46.833 : en: 00: 41: 46.833
    00: 52: 16.833 : en: 00: 52: 16.833
    01: 01: 25.417 : en: 01: 01: 25.417
    01: 12: 17.250 : en: 01: 12: 17.250
    01: 22: 43.458 : en: 01: 22: 43.458
    01: 32: 20.417 : en: 01: 32: 20.417
    01: 42: 12.708 : en: 01: 42: 12.708
    01: 46: 03.375 : en: 01: 46: 03.375

    Скриншоты для ознакомления



    Все одноименные релизы в Клубе
    Время раздачи: 24/7 (до появления первых 3-5 скачавших)


    Не/смотря ни на что/Mein Blind Date mit dem Leben (2017) HDRip [H.264]
    загрузка...
    Рейтинг →
     (голосов: 1, оценка 4/5, голосовать можно 1 раз )

    Другие торренты по теме:

  • Не / смотря ни на что / Mein Blind Date mit dem Leben (2017) TS
  • Не / смотря ни на что / Mein Blind Date mit dem Leben (2017) BDRip [H.264 / 1080p-LQ]
  • Не / смотря ни на что / Mein Blind Date mit dem Leben (2017) BDRip [H.264 / 1080p] [MVO]


    • Комментарии (0):

      Информация

      Информация

        Посетители, находящиеся в группе Гости, не могут оставлять комментарии в данной новости.

        ↓ Меню




        ↓ Опрос

        Вы добавили сайт в закладки?
        Да
        Нет


        Top 10 за месяц (Фильмы)