.
Авторизация | Регистрация
Хочешь лучшие торренты? Добавь свой email!
Добавить

Торрент скачать бесплатно

» » Теория Большого Взрыва / The Big Bang Theory (2017) WEB-DLRip [H.264 / 1080p-LQ] (сезон 11, серии 1-8 из 24) Кураж-Бамбей (обновляемая) торрент скачать бесплатно




    Теория Большого Взрыва / The Big Bang Theory (2017) WEB-DLRip [H.264 / 1080p-LQ] (сезон 11, серии 1-8 из 24) Кураж-Бамбей (обновляемая) торрент скачать бесплатно

    Опубликовал: Админ | Дата: 29-11-2017, 05:00 | Просмотров: 1

    Производство: США
    Жанр: комедия, мелодрама
    Режиссер: Марк Сендроуски

    Актеры
    Джонни Галекки, Джим Парсонс, Кейли Куоко, Саймон Хельберг, Кунал Найяр, Мелисса Рауш, Майем Биалик, Кевин Сасмэни, Кэрол Энн Сьюзи, Джон Росс Боуи, Уил Уитон, Брайан Джордж др.

    Описание

    Два блестящих физика, Леонард и Шелдон, великие умы, которые понимают, как работает Вселенная. Но их гениальность ничуть не помогает им общаться с людьми, особенно с женщинами. Всё начинает меняться, когда напротив них поселяется красавица Пенни.
    Когда Леонард и Шелдон встречают Пенни, Леонард сразу же начинает интересоваться ею. Он видит в общении с Пенни огромную перспективу, вплоть до любви, однако Шелдон понимает, что мечтам его друга не суждено сбыться.

    Возраст: 16+ (зрителям, достигшим 16 лет)
    Продолжительность: ~00: 20: 00 серия
    Качество видео: WEB-DLRip
    Перевод: одноголосый закадровый, профессиональный (Кураж-Бамбей)
    Реклама: отсутствует
    Видео: AVC/H.264, 1912x1072 (16: 9), ~5200 Kbps
    Аудио #1: AAC, 2 ch, 126 Kbps - одноголосый закадровый, профессиональный
    Аудио #2: AAC, 2 ch, 156 Kbps - английский
    General
    Complete name : The Big Bang Theory S11 WEB-DLRip 1080p (Kuraj-Bambey)The.Big.Bang.Theory.S11E05.1080p.Kuraj-Bambey.mkv
    Format : Matroska
    Format version : Version 4/Version 2
    File size : 749 MiB
    Duration : 19 min 6 s
    Overall bit rate : 5 478 kb/s
    Encoded date : UTC 2017-11-27 20: 07: 11
    Writing application : mkvmerge v18.0.0 (\'Apricity\') 64-bit
    Writing library : libebml v1.3.5 + libmatroska v1.4.8
    Video
    ID : 1
    Format : AVC
    Format/Info : Advanced Video Codec
    Format profile : High@L4
    Format settings, CABAC : Yes
    Format settings, RefFrames : 4 frames
    Codec ID : V_MPEG4/ISO/AVC
    Duration : 19 min 6 s
    Bit rate : 5 193 kb/s
    Width : 1 912 pixels
    Height : 1 072 pixels
    Display aspect ratio : 16: 9
    Frame rate mode : Constant
    Frame rate : 23.976 FPS
    Color space : YUV
    Chroma subsampling : 4: 2: 0
    Bit depth : 8 bits
    Scan type : Progressive
    Bits/(Pixel*Frame) : 0.106
    Stream size : 710 MiB (95%)
    Language : English
    Default : Yes
    Forced : No
    Color range : Limited
    Color primaries : BT.709
    Transfer characteristics : BT.709
    Matrix coefficients : BT.709
    Audio #1
    ID : 2
    Format : AAC
    Format/Info : Advanced Audio Codec
    Format profile : LC
    Codec ID : A_AAC
    Duration : 19 min 6 s
    Bit rate : 126 kb/s
    Channel(s) : 2 channels
    Channel positions : Front: L R
    Sampling rate : 48.0 kHz
    Frame rate : 46.875 FPS (1024 SPF)
    Compression mode : Lossy
    Delay relative to video : 5 ms
    Stream size : 17.2 MiB (2%)
    Language : Russian
    Default : Yes
    Forced : No
    Audio #2
    ID : 3
    Format : AAC
    Format/Info : Advanced Audio Codec
    Format profile : LC
    Codec ID : A_AAC
    Duration : 19 min 6 s
    Bit rate : 156 kb/s
    Channel(s) : 2 channels
    Channel positions : Front: L R
    Sampling rate : 48.0 kHz
    Frame rate : 46.875 FPS (1024 SPF)
    Compression mode : Lossy
    Delay relative to video : 5 ms
    Stream size : 21.4 MiB (3%)
    Language : English
    Default : No
    Forced : No

    Чтобы начать докачку новой серии, пользователям необходимо сделать следующее:
    1. Остановить скачивание
    2. Удалить старый торрент у себя из клиента (старые серии удалять не нужно)
    3. Скачать новый торрент и запустить его у себя в клиенте вместо старого, при этом указать клиенту путь в старую папку, куда и должно происходить скачивание новых серий. Ваш клиент при этом должен произвести проверку старой папки и начать докачивать только те серии, которых у вас ещё нет

    Скриншоты для ознакомления



    Все одноименные релизы в Клубе
    Время раздачи: 24/7 до появления первых 5-10 скачавших


    Онлайн видео Теория Большого Взрыва



    Теория Большого Взрыва/The Big Bang Theory (2017) WEB-DLRip [H.264/1080p-LQ] (сезон 11, серии 1-8 из 24) Кураж-Бамбей (обновляемая)
    загрузка...
    Рейтинг →
     (голосов: 1, оценка 5/5, голосовать можно 1 раз )

    Другие торренты по теме:

  • Теория Большого Взрыва / The Big Bang Theory (2014) HDTVRip, [H.264 / 720p-LQ], (Сезон 8, Серии 1-2 из 24) [Прыг-Скок] (обновляемая)
  • Теория Большого Взрыва / The Big Bang Theory (2014) HDTVRip [H.264 / 720p-LQ] (Сезон 8, серии 1-2 из 24) [En En, Ru Sub] (обновляемая)
  • Теория большого взрыва / The Big Bang Theory (2014) WEB-DL [H.264 / 1080p-LQ] (сезон 8, серии 1-2 из 24) Кураж-Бамбей (обновляемая)
  • Теория Большого Взрыва / The Big Bang Theory (2014) WEB-DL [H.264 / 1080p-LQ] (Сезон 8, Серия 1-2 из 24) [Кураж-Бамбей] (Обновляемая)
  • Теория Большого Взрыва / The Big Bang Theory (2014) WEB-DL [H.264 / 720p-LQ] (Сезон 8, серии 1-3 из 24) (Кураж-Бамбей) (обновляемая) скачать через торрент бесплатно
  • Теория большого взрыва / The Big Bang Theory (2014) WEB-DL [H.264 / 720p-LQ] [Сезон 8, Серии 1-7 из 24] (DekinStudio) (обновляемая) скачать через торрент бесплатно
  • Теория большого взрыва / The Big Bang Theory (2013) BDRemux [1080p] (сезон 7, серии 1-24 из 24) [Кураж-Бамбей]
  • Теория большого взрыва / The Big Bang Theory (2010) BDRemux [1080p] (сезон 3, серии 1-23 из 23) (Кураж-Бамбей, СТС) скачать через торрент бесплатно


    • Комментарии (0):

      Информация

      Информация

        Посетители, находящиеся в группе Гости, не могут оставлять комментарии в данной новости.

        ↓ Меню




        ↓ Опрос

        Вы добавили сайт в закладки?
        Да
        Нет


        Top 10 за месяц (Фильмы)