.
Авторизация | Регистрация
Хочешь лучшие торренты? Добавь свой email!
Добавить

Торрент скачать бесплатно

» » Забытые Богом / Безбожники / Godless (2017) WEBRip (сезон 1, серии 1-3 из 7) NewStudio (обновляемая) торрент скачать бесплатно




    Забытые Богом / Безбожники / Godless (2017) WEBRip (сезон 1, серии 1-3 из 7) NewStudio (обновляемая) торрент скачать бесплатно

    Опубликовал: Админ | Дата: 29-11-2017, 05:00 | Просмотров: 0

    Производство: США/NetFlix
    Жанр: вестерн
    Режиссер: Скотт Фрэнк

    Актеры
    Ким Коутс, Джефф Дэниелс, Джек О’Коннелл, Мишель Докери, Скут МакНэри, Мерритт Уивер, Томас Сэнгстер, Сэмюэл Марти, Рио Александр, Джереми Бобб и др.

    Описание

    Действие происходит в 1884 году. Зловещий бандит, Фрэнк Гриффин, терроризирует дикий Запад в поисках своего приёмного сына и одновременно бывшего партнёра, Роя Гуда, которого внезапно заела совесть и он свалил от Фрэнка с награбленным с последнего налёта. Поиски приводят Фрэнка к тихому городку Ла Белль, в котором, по странным обстоятельствам, обитают одни женщины.

    Дата мировой премьеры: 22 ноября 2017
    Продолжительность: ~01: 10: 00 серия
    Качество видео: WEBRip
    Перевод: Многоголосый закадровый, профессиональный -NewStudio
    Субтитры: русские (форсированные), английские (отдельным файлом)
    Видео: XviD, 720x298, ~1485 kbps
    Аудио 1: MP3, 48, 0 kHz, 2 ch, 128 kbps — русский, многоголосый закадровый
    Аудио 2: MP3, 48, 0 kHz, 2 ch, 128 kbps — английский

    Общее
    Полное имя : D: Забытые Богом (сезон любимого сериала 1) Godless (2017) WEBRip - NewStudioGodless.S01E01.WEBRip.Rus.Eng.DV.NewStudio.avi
    Формат : AVI
    Формат/Информация : Audio Video Interleave
    Размер файла : 888 Мбайт
    Продолжительность : 1 ч. 10 м.
    Общий поток : 1755 Кбит/сек
    Название фильма : Godless.S01E01.WEBRip.Rus.Eng.DV.NewStudio/NNM-Club
    Программа кодирования : VirtualDubModRus 1.5.10.2 (build 2542/release)
    Библиотека кодирования : VirtualDubMod build 2542/release
    Видео
    Идентификатор : 0
    Формат : MPEG-4 Visual
    Профиль формата : Advanced Simple@L5
    Настройки формата : BVOP2
    Параметр BVOP формата : 2
    Параметр QPel формата : Нет
    Параметр GMC формата : Без точки перехода
    Параметр матрицы формата : Default (H.263)
    Идентификатор кодека : XVID
    Идентификатор кодека/Подсказка : XviD
    Продолжительность : 1 ч. 10 м.
    Битрейт : 1485 Кбит/сек
    Ширина : 720 пикселей
    Высота : 298 пикселей
    Соотношение сторон : 2, 40: 1
    Частота кадров : 23, 976 (24000/1001) кадра/сек
    Цветовое пространство : YUV
    Субдискретизация насыщенности : 4: 2: 0
    Битовая глубина : 8 бит
    Тип развёртки : Прогрессивная
    Метод сжатия : С потерями
    Бит/(Пиксели*Кадры) : 0.289
    Размер потока : 752 Мбайт (85%)
    Заголовок : Rip by DriverV/NNM-Club
    Библиотека кодирования : XviD 67
    Аудио #1
    Идентификатор : 1
    Формат : MPEG Audio
    Версия формата : Version 1
    Профиль формата : Layer 3
    Настройки формата : Joint stereo/MS Stereo
    Идентификатор кодека : 55
    Идентификатор кодека/Подсказка : MP3
    Продолжительность : 1 ч. 10 м.
    Вид битрейта : Постоянный
    Битрейт : 128 Кбит/сек
    Каналы : 2 канала
    Частота : 48, 0 КГц
    Метод сжатия : С потерями
    Размер потока : 64, 8 Мбайт (7%)
    Выравнивание : Соединение по промежуткам
    Продолжительность промежутка : 42 мс. (1, 00 видеокадр)
    Время предзагрузки промежутка : 504 мс.
    Аудио #2
    Идентификатор : 2
    Формат : MPEG Audio
    Версия формата : Version 1
    Профиль формата : Layer 3
    Настройки формата : Joint stereo/MS Stereo
    Идентификатор кодека : 55
    Идентификатор кодека/Подсказка : MP3
    Продолжительность : 1 ч. 10 м.
    Вид битрейта : Постоянный
    Битрейт : 128 Кбит/сек
    Каналы : 2 канала
    Частота : 48, 0 КГц
    Метод сжатия : С потерями
    Размер потока : 64, 8 Мбайт (7%)
    Выравнивание : Соединение по промежуткам
    Продолжительность промежутка : 42 мс. (1, 00 видеокадр)
    Время предзагрузки промежутка : 504 мс.


    Онлайн видео Забытые Богом



    Забытые Богом/Безбожники/Godless (2017) WEBRip (сезон 1, серии 1-3 из 7) NewStudio (обновляемая)
    загрузка...
    Рейтинг →
     (голосов: 1, оценка 4/5, голосовать можно 1 раз )

    Другие торренты по теме:

  • Забытые Богом / Godless (2017) WEBRip [H.264 / 1080p-LQ] (сезон 1, серии 1 из 7) OmskBird (обновляемая) [AD]
  • Забытые Богом / Безбожники / Godless (2017) WEBRip [H.264 / 1080p-LQ] (сезон 1, серии 1-2 из 7) NewStudio (обновляемая)
  • Забытые Богом / Безбожники / Godless (2017) WEBRip [H.264 / 720p-LQ] (сезон 1, серии 1-2 из 7) NewStudio (обновляемая)


    • Комментарии (0):

      Информация

      Информация

        Посетители, находящиеся в группе Гости, не могут оставлять комментарии в данной новости.

        ↓ Меню




        ↓ Опрос

        Вы добавили сайт в закладки?
        Да
        Нет


        Top 10 за месяц (Фильмы)