.
Авторизация | Регистрация
Хочешь лучшие торренты? Добавь свой email!
Добавить

Торрент скачать бесплатно

» » Хождение по мукам (2017) WEBRip (серии 1-2 из 12) (обновляемая) торрент скачать бесплатно




    Хождение по мукам (2017) WEBRip (серии 1-2 из 12) (обновляемая) торрент скачать бесплатно

    Опубликовал: Админ | Дата: 29-11-2017, 05:00 | Просмотров: 1

    Производство: Россия
    Жанр: драма
    Режиссер: Константин Худяков

    Актеры
    Юлия Снигирь, Анна Чиповская, Павел Трубинер, Леонид Бичевин, Антон Шагин, Андрей Мерзликин, Светлана Ходченкова, Алексей Колган, Александр Яценко, Евгений Стычкин и др.

    Описание

    Сериал рассказывает о судьбах русской интеллигенции накануне, во время и после революционных событий 1917 года. В центре сюжета — история жизни двух сестер Булавиных, Дарьи и Катерины, и их возлюбленных: офицера Вадима Рощина и инженера Балтийского завода Телегина. Вихри мировой войны, двух революций и Гражданской войны разносят четырех главных героев по разным уголкам страны. Их пути расходятся и не раз пересекаются вновь.

    Возраст: 16+ (зрителям, достигшим 16 лет)
    Дата российской премьеры: 27 ноября 2017
    Продолжительность: ~00: 52: 00 серия
    Качество видео: WEBRip
    Видео: Xvid, 720x304 (2.35: 1), ~1560 Kbps
    Аудио: AC3, 2 ch, 192 Kbps

    Общее
    Полное имя : D: Хождение по мукам (2017)Серия 01.avi
    Формат : AVI
    Формат/Информация : Audio Video Interleave
    Размер файла : 650 Мбайт
    Продолжительность : 51 м. 34 с.
    Общий поток : 1762 Кбит/сек
    Программа кодирования : VirtualDubMod 1.5.10.3 |www.virtualdub-fr.org|| (build 2550/release)
    Библиотека кодирования : VirtualDubMod build 2550/release
    Видео
    Идентификатор : 0
    Формат : MPEG-4 Visual
    Профиль формата : Advanced Simple@L5
    Настройки формата : BVOP1/Custom Matrix
    Параметр BVOP формата : 1
    Параметр QPel формата : Нет
    Параметр GMC формата : Без точки перехода
    Параметр матрицы формата : Выборочная
    Идентификатор кодека : XVID
    Идентификатор кодека/Подсказка : XviD
    Продолжительность : 51 м. 34 с.
    Битрейт : 1560 Кбит/сек
    Ширина : 720 пикселей
    Высота : 304 пикселя
    Соотношение сторон : 2, 35: 1
    Частота кадров : 25, 000 кадров/сек
    Цветовое пространство : YUV
    Субдискретизация насыщенности : 4: 2: 0
    Битовая глубина : 8 бит
    Тип развёртки : Прогрессивная
    Метод сжатия : С потерями
    Бит/(Пиксели*Кадры) : 0.285
    Размер потока : 576 Мбайт (89%)
    Библиотека кодирования : XviD 73
    Аудио
    Идентификатор : 1
    Формат : AC-3
    Формат/Информация : Audio Coding 3
    Идентификатор кодека : 2000
    Продолжительность : 51 м. 34 с.
    Вид битрейта : Постоянный
    Битрейт : 192 Кбит/сек
    Каналы : 2 канала
    Расположение каналов : Front: L R
    Частота : 48, 0 КГц
    Частота кадров : 31, 250 кадров/сек (1536 SPF)
    Битовая глубина : 16 бит
    Метод сжатия : С потерями
    Размер потока : 70, 8 Мбайт (11%)
    Выравнивание : Разделение по промежуткам
    Продолжительность промежутка : 40 мс. (1, 00 видеокадр)
    Время предзагрузки промежутка : 500 мс.
    ServiceKind/String : Complete Main


    Онлайн видео Хождение по мукам (2017) WEBRip (серии 1



    Хождение по мукам (2017) WEBRip (серии 1-2 из 12) (обновляемая)
    загрузка...
    Рейтинг →
     (голосов: 1, оценка 4/5, голосовать можно 1 раз )

    Другие торренты по теме:

  • Хождение по мукам (1977) SATRip [H.264] (серии 1-4 из 13) (обновляемая) скачать через торрент бесплатно
  • Хождение по мукам (2017) WEB-DL [H.264 / 1080p-LQ] (серии 1-2 из 12) (обновляемая)
  • Хождение по мукам (2017) SATRip [H.264] (сезон-1,серии 1-8 из 12)(обновляемая)


    • Комментарии (0):

      Информация

      Информация

        Посетители, находящиеся в группе Гости, не могут оставлять комментарии в данной новости.

        ↓ Меню




        ↓ Опрос

        Вы добавили сайт в закладки?
        Да
        Нет


        Top 10 за месяц (Фильмы)