.
Авторизация | Регистрация
Хочешь лучшие торренты? Добавь свой email!
Добавить

Торрент скачать бесплатно

» » Свои (2017) WEB-DL [H.264 / 1080p-LQ] (серии 1 из ) (обновляемая) торрент скачать бесплатно




    Свои (2017) WEB-DL [H.264 / 1080p-LQ] (серии 1 из ) (обновляемая) торрент скачать бесплатно

    Опубликовал: Админ | Дата: 29-11-2017, 05:00 | Просмотров: 0

    Производство: Россия
    Жанр: детектив
    Режиссер: Михаил Колпахчиев

    Актеры
    Антон Васильев, Полина Толстун, Инна Степанова, Ирина Горячева, Анна Лапина, Олег Жилин, Ярослав Воронцов, Степан Бекетов, Игорь Угаров, Игорь Лепихин и др.

    Описание

    СВОИ — это команда лучших экспертов из разных структур, которые объединились, чтобы разгадывать самые нетривиальные детективные загадки.
    Судмедэксперт, криминалист, дознаватель, программист, психолог и даже экстрасенс! У каждого из них свой характер, свои слабости и, конечно же, свои суперспособности. Но при этом, как и любой из нас, они обыкновенные живые люди. Они СВОИ.

    Дата российской премьеры: 27 ноября 2017
    Релиз от: Алехаndr
    Продолжительность: ~00: 46: 00 серия
    Качество видео: WEB-DL
    Видео: AVC/H.264, 1920x1080 (16: 9), ~2910 Kbps
    Аудио: AC3, 2 ch, 192 Kbps

    Общее
    Уникальный идентификатор : 198100732750884320191312135368887372036 (0x9508D035CE101F862466ABEDA7FA0904)
    Полное имя : D: Свои (2017).by.АлехаndrСерия 01.by.Алехаndr.mkv
    Формат : Matroska
    Версия формата : Version 4/Version 2
    Размер файла : 1, 05 Гбайт
    Продолжительность : 47 м. 29 с.
    Общий поток : 3167 Кбит/сек
    Программа кодирования : Lavf57.71.100
    Библиотека кодирования : Lavf57.71.100
    ErrorDetectionType : Per level 1
    Видео
    Идентификатор : 1
    Формат : AVC
    Формат/Информация : Advanced Video Codec
    Профиль формата : High@L4
    Настройки формата : CABAC/2 Ref Frames
    Параметр CABAC формата : Да
    Параметр RefFrames формата : 2 кадра
    Идентификатор кодека : V_MPEG4/ISO/AVC
    Продолжительность : 47 м. 29 с.
    Битрейт : 2912 Кбит/сек
    Ширина : 1920 пикселей
    Высота : 1080 пикселей
    Соотношение сторон : 16: 9
    Режим частоты кадров : Постоянный
    Частота кадров : 25, 000 кадров/сек
    Цветовое пространство : YUV
    Субдискретизация насыщенности : 4: 2: 0
    Битовая глубина : 8 бит
    Тип развёртки : Прогрессивная
    Бит/(Пиксели*Кадры) : 0.056
    Размер потока : 989 Мбайт (92%)
    Default : Да
    Forced : Нет
    Цветовой диапазон : Limited
    Основные цвета : BT.709
    Характеристики трансфера : BT.709
    Коэффициенты матрицы : BT.709
    Аудио
    Идентификатор : 2
    Формат : AC-3
    Формат/Информация : Audio Coding 3
    Идентификатор кодека : A_AC3
    Продолжительность : 47 м. 29 с.
    Вид битрейта : Постоянный
    Битрейт : 192 Кбит/сек
    Каналы : 2 канала
    Расположение каналов : Front: L R
    Частота : 44, 1 КГц
    Частота кадров : 28, 711 кадров/сек (1536 SPF)
    Битовая глубина : 16 бит
    Метод сжатия : С потерями
    Задержка видео : -40 мс.
    Размер потока : 65, 2 Мбайт (6%)
    Язык : unknown
    ServiceKind/String : Complete Main
    Default : Да
    Forced : Нет


    Онлайн видео Свои (2017) WEB-DL [H.264



    Свои (2017) WEB-DL [H.264/1080p-LQ] (серии 1 из ) (обновляемая)
    загрузка...
    Рейтинг →
     (голосов: 1, оценка 4/5, голосовать можно 1 раз )

    Другие торренты по теме:

  • Иванов Евгений | Банковский беспредел - как вернуть свои деньги (2014) [PDF] скачать через торрент бесплатно
  • Инопланетяне раскрывают свои планы: День оцепеневшего запада / Alien Showdown: The Day the Old West Stood Still (2013) HDRip скачать через торрент бесплатно
  • Дэвид Рок | Мозг. Инструкция по применению. Как использовать свои возможности по максимуму и без перегрузок (2013) [EPUB, PDF] скачать через торрент бесплатно
  • FlipaClip Cartoon Animation 1.4.8 [Ru / Multi] - создаём свои анимации скачать через торрент бесплатно
  • Роберт Смит | Как достойно прожить свои 20 000 дней (2015) [FB2] скачать через торрент бесплатно
  • Барбара Шер | Отказываюсь выбирать! Как использовать свои интересы, увлечения и хобби, чтобы построить жизнь и карьеру своей мечты (2015) [EPUB, MOBI] скачать через торрент бесплатно
  • Андрей Баратов | Как осуществить свои мечты (2013) [FB2, EPUB] скачать через торрент бесплатно
  • Анна Барсова | Формула личности, или Как свои недостатки превратить в достоинства (2004) [PDF]


    • Комментарии (0):

      Информация

      Информация

        Посетители, находящиеся в группе Гости, не могут оставлять комментарии в данной новости.

        ↓ Меню




        ↓ Опрос

        Вы добавили сайт в закладки?
        Да
        Нет


        Top 10 за месяц (Фильмы)