.
Авторизация | Регистрация
Хочешь лучшие торренты? Добавь свой email!
Добавить

Торрент скачать бесплатно

» » Роковое наследство / Параллельная жизнь (2014) WEB-DL [H.264 / 1080p-LQ] (серии 1-12 из 12) торрент скачать бесплатно




    Роковое наследство / Параллельная жизнь (2014) WEB-DL [H.264 / 1080p-LQ] (серии 1-12 из 12) торрент скачать бесплатно

    Опубликовал: Админ | Дата: 29-11-2017, 05:00 | Просмотров: 0

    Производство: Россия/Всемирные Русские Студии
    Жанр: детектив, криминал, приключения
    Режиссер: Сергей Бобров

    Актеры
    Виктория Романенко, Илья Коробко, Алёна Хмельницкая, Евгений Сидихин, Жанна Эппле, Наталья Ткаченко, Алёна Яковлева, Игорь Миркурбанов, Дмитрий Астрахан, Анатолий Дзиваев и др.

    Описание

    Накануне свадьбы, молодой учитель из провинциального колледжа Владислав Михайлов, узнает, что он - подкидыш. Настоящие родители в начале 90-х спрятали Владика у знакомых, спасая сыну жизнь. Теперь, когда главный враг, олигарх Гаев, убит, Владик в безопасности. Больше всего он хочет узнать хоть что-то о своей семье. Вместе со своей невестой Тоней Владик начинает собирать информацию - пазл, части которого находятся у совершенно незнакомых друг с другом людей. Сами по себе эти обрывки информации ничего не значат, но собранные вместе они раскрывают тайну семьи.

    Возраст: 16+ (зрителям, достигшим 16 лет)
    Релиз от: Алехаndr
    Продолжительность: ~00: 43: 00 серия
    Качество видео: WEB-DL
    Видео: AVC/H.264, 1920x1080 (16: 9), ~3055 Kbps
    Аудио: AC3, 2 ch, 192 Kbps

    Общее
    Уникальный идентификатор : 174400498865804026732510830723471025344 (0x83345076801962121C14FBEB6F08A4C0)
    Полное имя : D: Параллельная жизнь (2014).by.АлехаndrСерия 01.by.Алехаndr.mkv
    Формат : Matroska
    Версия формата : Version 4/Version 2
    Размер файла : 1, 01 Гбайт
    Продолжительность : 43 м. 40 с.
    Общий поток : 3313 Кбит/сек
    Программа кодирования : Lavf57.71.100
    Библиотека кодирования : Lavf57.71.100
    ErrorDetectionType : Per level 1
    Видео
    Идентификатор : 1
    Формат : AVC
    Формат/Информация : Advanced Video Codec
    Профиль формата : High@L4
    Настройки формата : CABAC/2 Ref Frames
    Параметр CABAC формата : Да
    Параметр RefFrames формата : 2 кадра
    Идентификатор кодека : V_MPEG4/ISO/AVC
    Продолжительность : 43 м. 39 с.
    Битрейт : 3055 Кбит/сек
    Ширина : 1920 пикселей
    Высота : 1080 пикселей
    Соотношение сторон : 16: 9
    Режим частоты кадров : Постоянный
    Частота кадров : 25, 000 кадров/сек
    Цветовое пространство : YUV
    Субдискретизация насыщенности : 4: 2: 0
    Битовая глубина : 8 бит
    Тип развёртки : Прогрессивная
    Бит/(Пиксели*Кадры) : 0.059
    Размер потока : 954 Мбайт (92%)
    Default : Да
    Forced : Нет
    Цветовой диапазон : Limited
    Основные цвета : BT.709
    Характеристики трансфера : BT.709
    Коэффициенты матрицы : BT.709
    Аудио
    Идентификатор : 2
    Формат : AC-3
    Формат/Информация : Audio Coding 3
    Идентификатор кодека : A_AC3
    Продолжительность : 43 м. 39 с.
    Вид битрейта : Постоянный
    Битрейт : 192 Кбит/сек
    Каналы : 2 канала
    Расположение каналов : Front: L R
    Частота : 44, 1 КГц
    Частота кадров : 28, 711 кадров/сек (1536 SPF)
    Битовая глубина : 16 бит
    Метод сжатия : С потерями
    Задержка видео : -40 мс.
    Размер потока : 60, 0 Мбайт (6%)
    Язык : unknown
    ServiceKind/String : Complete Main
    Default : Да
    Forced : Нет

    Скриншоты для ознакомления



    Все одноименные релизы в Клубе
    Время раздачи: 24/7 (круглосуточно) (до появления первых 3-5 скачавших)


    Онлайн видео Роковое наследство



    Роковое наследство/Параллельная жизнь (2014) WEB-DL [H.264/1080p-LQ] (серии 1-12 из 12)
    загрузка...
    Рейтинг →
     (голосов: 1, оценка 4/5, голосовать можно 1 раз )

    Другие торренты по теме:

  • Роковое наследство (2015) HDTV [1080i] (серии 1-2 из 2) скачать через торрент бесплатно


    • Комментарии (0):

      Информация

      Информация

        Посетители, находящиеся в группе Гости, не могут оставлять комментарии в данной новости.

        ↓ Меню




        ↓ Опрос

        Вы добавили сайт в закладки?
        Да
        Нет


        Top 10 за месяц (Фильмы)