.
Авторизация | Регистрация
Хочешь лучшие торренты? Добавь свой email!
Добавить

Торрент скачать бесплатно

» » Ведьма из Блэр 2: Книга теней / Book of Shadows: Blair Witch 2 (2000) WEBRip [H.264] торрент скачать бесплатно




    Ведьма из Блэр 2: Книга теней / Book of Shadows: Blair Witch 2 (2000) WEBRip [H.264] торрент скачать бесплатно

    Опубликовал: Админ | Дата: 29-11-2017, 05:00 | Просмотров: 0

    Производство: США/Artisan Entertainment, Haxan Films
    Жанр: Ужасы, Триллер
    Режиссер: Джо Берлингер

    Актеры
    Ким Директор, Джеффри Донован, Эрика Лирсен, Тристайн Скайлер, Стивен Баркер Тернер, Курт Лодер, Чак Скарборо, Брюс Рид, Линда Миллард, Дэб Бургойн

    Описание

    Джефф Патерсон никогда не был пай-мальчиком. Он всегда был плохим парнем, и его воображение неизменно занимала ведьма из Блэр и легенда, связанная с ней. Джефф организует развлекательный тур Охота за ведьмой из Блэр. Он проводит экскурсии по знаменитому зловещему лесу и в печально известный дом Растина Парра, совершившего семь убийств по приказанию ведьмы из Блэр.
    Четверо студентов колледжа отправляются в этот тур и проводят ночь в доме Растина Парра. Наутро они обнаруживают, что не спали, но ни один из них не может вспомнить, что произошло за прошедшие пять часов. Обнаружив странные знаки на своих телах, студенты всё больше убеждаются в том, что стали участниками не развлекательного туристического аттракциона, а были вовлечены в нечто более ужасное.
    А когда эти студенты вернутся в свой родной город, кто-то или что-то страшное последует за ними…

    Возраст: 16+ (зрителям, достигшим 16 лет)
    Рейтинг MPAA: R (лицам до 17 лет обязательно присутствие взрослого)
    Релиз от: k.e.n MegaPeer
    Качество видео: WEBRip
    Перевод: Дублированный
    Субтитры: Русские, английские
    Видео: A VC, 1024x576 (16: 9), 29.970 fps, 2 559 Kbps (0.145 bit/pixel)
    Аудио #1: AC-3, 48.0 KHz, 6 ch, 448 Kbps, CBR (Russian)
    Аудио #2: AC-3, 48.0 KHz, 6 ch, 448 Kbps, CBR (English)

    Полное имя : D: ФИЛЬМЫВедьма из Блэр 2 Книга теней.2000.mkv
    Формат : Matroska
    Версия формата : Version 2
    Размер файла : 2, 18 Гбайт
    Продолжительность : 1 ч. 30 м.
    Общий поток : 3457 Кбит/сек
    Дата кодирования : UTC 2017-11-26 22: 25: 47
    Программа кодирования : mkvmerge v5.3.0 (\'I could have danced\') built on Feb 9 2012 10: 38: 07
    Библиотека кодирования : libebml v1.2.3 + libmatroska v1.3.0
    Attachments : poster (10).jpg
    Видео
    Идентификатор : 1
    Формат : AVC
    Формат/Информация : Advanced Video Codec
    Профиль формата : High@L4.1
    Параметр CABAC формата : Да
    Параметр ReFrames формата : 11 кадров
    Идентификатор кодека : V_MPEG4/ISO/AVC
    Продолжительность : 1 ч. 30 м.
    Битрейт : 2559 Кбит/сек
    Ширина : 1024 пикселя
    Высота : 576 пикселей
    Соотношение сторон : 16: 9
    Режим частоты кадров : Постоянный
    Частота кадров : 29, 970 (30000/1001) кадров/сек
    Цветовое пространство : YUV
    Субдискретизация насыщенности : 4: 2: 0
    Битовая глубина : 8 бит
    Тип развёртки : Прогрессивная
    Бит/(Пиксели*Кадры) : 0.145
    Размер потока : 1, 57 Гбайт (72%)
    Библиотека кодирования : x264 core 146 r2538 121396c
    Настройки программы : cabac=1/ref=11/deblock=1: -3: -3/analyse=0x3: 0x133/me=umh/subme=11/psy=1/psy_rd=1.00: 0.05/mixed_ref=1/me_range=32/chroma_me=1/trellis=2/8x8dct=1/cqm=0/deadzone=21, 11/fast_pskip=0/chroma_qp_offset=-3/threads=12/lookahead_threads=3/sliced_threads=0/nr=0/decimate=0/interlaced=0/bluray_compat=0/constrained_intra=0/bframes=10/b_pyramid=2/b_adapt=2/b_bias=0/direct=3/weightb=1/open_gop=0/weightp=2/keyint=240/keyint_min=23/scenecut=40/intra_refresh=0/rc=2pass/mbtree=0/bitrate=2559/ratetol=1.0/qcomp=0.60/qpmin=0/qpmax=69/qpstep=4/cplxblur=20.0/qblur=0.5/ip_ratio=1.40/pb_ratio=1.30/aq=3: 0.90
    Язык : English
    Default : Да
    Forced : Нет
    Аудио #1
    Идентификатор : 2
    Формат : AC-3
    Формат/Информация : Audio Coding 3
    Расширение режима : CM (complete main)
    Параметр Endianness формата : Big
    Идентификатор кодека : A_AC3
    Продолжительность : 1 ч. 30 м.
    Вид битрейта : Постоянный
    Битрейт : 448 Кбит/сек
    Каналы : 6 каналов
    Расположение каналов : Front: L C R, Side: L R, LFE
    Частота : 48, 0 КГц
    Частота кадров : 31, 250 кадров/сек (1536 spf)
    Битовая глубина : 16 бит
    Метод сжатия : С потерями
    Размер потока : 289 Мбайт (13%)
    Заголовок : Dub МОСФИЛЬМ-мастер
    Язык : Russian
    Default : Нет
    Forced : Нет
    Аудио #2
    Идентификатор : 3
    Формат : AC-3
    Формат/Информация : Audio Coding 3
    Расширение режима : CM (complete main)
    Параметр Endianness формата : Big
    Идентификатор кодека : A_AC3
    Продолжительность : 1 ч. 30 м.
    Вид битрейта : Постоянный
    Битрейт : 448 Кбит/сек
    Каналы : 6 каналов
    Расположение каналов : Front: L C R, Side: L R, LFE
    Частота : 48, 0 КГц
    Частота кадров : 31, 250 кадров/сек (1536 spf)
    Битовая глубина : 16 бит
    Метод сжатия : С потерями
    Размер потока : 289 Мбайт (13%)
    Язык : English
    Default : Нет
    Forced : Нет
    Текст #1
    Идентификатор : 4
    Формат : UTF-8
    Идентификатор кодека : S_TEXT/UTF8
    Идентификатор кодека/Информация : UTF-8 Plain Text
    Язык : Russian
    Default : Нет
    Forced : Нет
    Текст #2
    Идентификатор : 5
    Формат : UTF-8
    Идентификатор кодека : S_TEXT/UTF8
    Идентификатор кодека/Информация : UTF-8 Plain Text
    Заголовок : CC
    Язык : English
    Default : Нет
    Forced : Нет

    Скриншоты для ознакомления



    Все одноименные релизы в Клубе
    Время раздачи: с 23: 00 до 8: 30 (до появления первых 3-5 скачавших)


    Онлайн видео Ведьма из Блэр 2: Книга теней



    Ведьма из Блэр 2: Книга теней/Book of Shadows: Blair Witch 2 (2000) WEBRip [H.264]
    загрузка...
    Рейтинг →
     (голосов: 1, оценка 5/5, голосовать можно 1 раз )

    Другие торренты по теме:

  • Ведьма из Блэр: Секс версия / The Bare Wench Project (2000) DVDRip скачать через торрент бесплатно
  • Ведьма из Блэр: Новая глава / Blair Witch (2016) CamRip
  • Ведьма из Блэр: Новая глава / Blair Witch (2016) BDRemux [H.264 / 1080p] [EN / EN, Sp Sub]
  • Ведьма из Блэр: Новая глава / Blair Witch (2016) BDRip
  • Ведьма из Блэр: Новая глава / Blair Witch (2016) BDRemux [H.264 / 1080p]
  • Ведьма из Блэр: Новая глава / Blair Witch (2016) BDRip [H.264 / 1080p]
  • Ведьма из Блэр: Новая глава / Blair Witch (2016) BDRemux [H.264 / 1080p]
  • Ведьма из Блэр: Новая глава / Blair Witch (2016) BDRip [H.264]


    • Комментарии (0):

      Информация

      Информация

        Посетители, находящиеся в группе Гости, не могут оставлять комментарии в данной новости.

        ↓ Меню




        ↓ Опрос

        Вы добавили сайт в закладки?
        Да
        Нет


        Top 10 за месяц (Фильмы)