.
Авторизация | Регистрация
Хочешь лучшие торренты? Добавь свой email!
Добавить

Торрент скачать бесплатно

» » Модернисты / The Moderns (1988) DVDRip торрент скачать бесплатно




    Модернисты / The Moderns (1988) DVDRip торрент скачать бесплатно

    Опубликовал: Админ | Дата: 29-11-2017, 05:00 | Просмотров: 0

    Производство: США/Nelson Entertainment
    Жанр: Драма, Мелодрама, Комедия
    Режиссер: Алан Рудольф

    Актеры
    Кит Кэрредин, Линда Фиорентино, Уоллес Шон, Женевьев Бюжо, Джеральдин Чаплин, Кевин Дж. О`Коннор, Джон Лоун, Шарлели Кутюр, Эльза Рэйвен, Эли Джирон

    Описание

    Артистический мир Парижа 20-х годов предстает перед зрителем как обобщающий образ, романтический мир, в котором живет группа американцев в самое интересное время новаторства и творческой активности. Ник Харт никак не может добиться признания как художник. Журналист Уазо, пишущий для Трибун о светских сплетнях, мечтает только о Голливуде.
    Бертрам Стоун — элегантный, богатый торговец предметами искусства со склонностью к насилию. Его жена, Рэйчел, с которой у Ника есть прошлое и, как он надеется, будущее. Сам Эрнест Хемингуэй пишет за стойкой бара. Важны образы Либби, обедневшей галерейщицы, и Натали, покровительницы искусств, подбивающей Ника подделать несколько картин.

    Возраст: 16+ (зрителям, достигшим 16 лет)
    Рейтинг MPAA: R (лицам до 17 лет обязательно присутствие взрослого)
    Релиз от: miha2154
    Продолжительность: 02: 06: 23
    Качество видео: DVDRip
    Перевод: Дублированный, Многоголосый закадровый, Двухголосый закадровый
    Субтитры: отсутствуют
    Видео: Xvid, 704x384, ~1869 Kbps
    Аудио #1: Русский - AC3, 2 ch, 192 Kbps (DUB - Ленфильм, СССР)
    Аудио #2: Русский - AC3, 2 ch, 192 Kbps (DVO - СВ-Кадр)
    Аудио #3: Русский - AC3, 2 ch, 192 Kbps (MVO - Vintage)

    General
    Complete name : /media/win/TORRENT/UPLOAD TORRENTS/Модернисты.avi
    Format : AVI
    Format/Info : Audio Video Interleave
    Format profile : OpenDML
    File size : 2.18 GiB
    Duration : 2 h 6 min
    Overall bit rate : 2 469 kb/s
    Director : miha2154
    Writing application : VirtualDubMod 1.5.10.2 (build 2540/release)
    Writing library : VirtualDubMod build 2540/release
    Video
    ID : 0
    Format : MPEG-4 Visual
    Format profile : Advanced Simple@L5
    Format settings : BVOP2
    Format settings, BVOP : 2
    Format settings, QPel : No
    Format settings, GMC : No warppoints
    Format settings, Matrix : Default (MPEG)
    Codec ID : XVID
    Codec ID/Hint : XviD
    Duration : 2 h 6 min
    Bit rate : 1 869 kb/s
    Width : 704 pixels
    Height : 384 pixels
    Display aspect ratio : 1.85: 1
    Frame rate : 23.976 (24000/1001) FPS
    Color space : YUV
    Chroma subsampling : 4: 2: 0
    Bit depth : 8 bits
    Scan type : Progressive
    Compression mode : Lossy
    Bits/(Pixel*Frame) : 0.288
    Stream size : 1.65 GiB (76%)
    Writing library : XviD 1.1.0 (UTC 2005-11-22)
    Audio #1
    ID : 1
    Format : AC-3
    Format/Info : Audio Coding 3
    Codec ID : 2000
    Duration : 2 h 6 min
    Bit rate mode : Constant
    Bit rate : 192 kb/s
    Channel(s) : 2 channels
    Channel positions : Front: L R
    Sampling rate : 48.0 kHz
    Frame rate : 31.250 FPS (1536 SPF)
    Bit depth : 16 bits
    Compression mode : Lossy
    Stream size : 174 MiB (8%)
    Alignment : Split accross interleaves
    Interleave, duration : 42 ms (1.00 video frame)
    Interleave, preload duration : 500 ms
    Service kind : Complete Main
    Audio #2
    ID : 2
    Format : AC-3
    Format/Info : Audio Coding 3
    Codec ID : 2000
    Duration : 2 h 6 min
    Bit rate mode : Constant
    Bit rate : 192 kb/s
    Channel(s) : 2 channels
    Channel positions : Front: L R
    Sampling rate : 48.0 kHz
    Frame rate : 31.250 FPS (1536 SPF)
    Bit depth : 16 bits
    Compression mode : Lossy
    Stream size : 174 MiB (8%)
    Alignment : Split accross interleaves
    Interleave, duration : 42 ms (1.00 video frame)
    Interleave, preload duration : 500 ms
    Service kind : Complete Main
    Audio #3
    ID : 3
    Format : AC-3
    Format/Info : Audio Coding 3
    Codec ID : 2000
    Duration : 2 h 6 min
    Bit rate mode : Constant
    Bit rate : 192 kb/s
    Channel(s) : 2 channels
    Channel positions : Front: L R
    Sampling rate : 48.0 kHz
    Frame rate : 31.250 FPS (1536 SPF)
    Bit depth : 16 bits
    Compression mode : Lossy
    Stream size : 174 MiB (8%)
    Alignment : Split accross interleaves
    Interleave, duration : 42 ms (1.00 video frame)
    Interleave, preload duration : 500 ms
    Service kind : Complete Main

    Скриншоты для ознакомления



    Все одноименные релизы в Клубе
    Время раздачи: с 09: 00 до 22: 00 до пяти скачавших (до появления первых 3-5 скачавших)


    Онлайн видео Модернисты



    Модернисты/The Moderns (1988) DVDRip
    загрузка...
    Рейтинг →
     (голосов: 1, оценка 4/5, голосовать можно 1 раз )

    Другие торренты по теме:

  • Модернисты / The Moderns (1988) Blu-ray [H.264 / 1080p] [Custom]


    • Комментарии (0):

      Информация

      Информация

        Посетители, находящиеся в группе Гости, не могут оставлять комментарии в данной новости.

        ↓ Меню




        ↓ Опрос

        Вы добавили сайт в закладки?
        Да
        Нет


        Top 10 за месяц (Фильмы)