.
Авторизация | Регистрация
Хочешь лучшие торренты? Добавь свой email!
Добавить

Торрент скачать бесплатно

» » Чернокнижник / Warlock (1989) BDRip [H.264] торрент скачать бесплатно




    Чернокнижник / Warlock (1989) BDRip [H.264] торрент скачать бесплатно

    Опубликовал: Админ | Дата: 29-11-2017, 05:00 | Просмотров: 1

    Производство: США/New World Pictures
    Жанр: Приключения, Триллер, Фэнтези
    Режиссер: Стив Майнер
    Продюсер: Стив Майнер, Майкл Фоттрел, Арнольд Копельсон

    Актеры
    Джулиан Сэндс, Лори Сингер, Ричард Э. Грант, Мэри Воронов, Кевин О’Брайэн, Ричард Касс, Аллан Миллер, Анна Левайн, Дэвид Карпентер, Кэй Е. Кьютер

    Описание

    Бостон, 1691 год. До казни самого могущественного колдуна-чернокнижника Нового Света остается лишь несколько часов. Но сам дьявол освобождает своего ученика из заточения и переносит его на триста лет вперед, через пространство и время, в современный Лос-Анджелес. Здесь чернокнижник должен найти и соединить три части Великого Гримуара — сатанинской Библии — и раскрыть тайное имя Господа, после чего Земля окажется во власти дьявола. Но на его пути встает охотник на ведьм Жиль Редферн, предавший чернокнижника суду Господню в средневековой Новой Англии и перенесшийся вслед за ним в современный Лос-Анджелес.

    Возраст: 18+ (зрителям, достигшим 18 лет. запрещено для детей)
    Рейтинг MPAA: R (лицам до 17 лет обязательно присутствие взрослого)
    Релиз от: RG NNM Club Video
    Продолжительность: 01: 46: 08
    Качество видео: BDRip
    Перевод: Дублированный, Многоголосый, Авторский х6
    Субтитры: Русские, Английские
    Видео: AVC/H.264, 720x392, ~2649 kbps, 23, 976 fps
    Аудио #01: AC3, 2 ch, 192 kbps (Русский - Дублированный \'\'Мосфильм\'\' с вставками многоголосого \'\'ОРТ\'\')
    Аудио #02: AC3, 2 ch, 192 kbps (Русский - Многоголосый \'\'ОРТ\'\') - Отдельно
    Аудио #03: AC3, 2 ch, 192 kbps (Русский - Авторский \'\'Антон Боровой (Карповский)\'\') - Отдельно
    Аудио #04: AC3, 2 ch, 192 kbps (Русский - Авторский \'\'Андрей Дольский\'\') - Отдельно
    Аудио #05: AC3, 2 ch, 192 kbps (Русский - Авторский \'\'Вартан Дохалов\'\') - Отдельно
    Аудио #06: AC3, 2 ch, 192 kbps (Русский - Авторский \'\'Юрий Живов\'\') - Отдельно
    Аудио #07: AC3, 2 ch, 192 kbps (Русский - Авторский \'\'Николай Жучков\'\') - Отдельно
    Аудио #08: AC3, 2 ch, 192 kbps (Русский - Авторский \'\'Петербуржец\'\') - Отдельно
    Аудио #09: AC3, 2 ch, 192 kbps (Украинский - Многоголосый \'\'Новый канал\'\') - Отдельно
    Аудио #10: AC3, 2 ch, 192 kbps (Английский) - Отдельно
    YouTube

    -Information 26.11.2017 17: 42: 39 x264 info: frame I: 1083 Avg QP: 15.10 size: 71778
    -Information 26.11.2017 17: 42: 40 x264 info: frame P: 32367 Avg QP: 17.50 size: 28710
    -Information 26.11.2017 17: 42: 40 x264 info: frame B: 115023 Avg QP: 19.08 size: 9069

    Общее
    Полное имя : Warlock.01.1989.nnm_video2.ac3
    Формат : AC-3
    Формат/Информация : Audio Coding 3
    Размер файла : 142 Мбайт
    Продолжительность : 1 ч. 43 м.
    Режим общего битрейта : Постоянный
    Общий поток : 192 Кбит/сек
    Аудио
    Формат : AC-3
    Формат/Информация : Audio Coding 3
    Продолжительность : 1 ч. 43 м.
    Вид битрейта : Постоянный
    Битрейт : 192 Кбит/сек
    Каналы : 2 канала
    Расположение каналов : Front: L R
    Частота : 48, 0 КГц
    Частота кадров : 31, 250 кадров/сек (1536 SPF)
    Битовая глубина : 16 бит
    Метод сжатия : С потерями
    Размер потока : 142 Мбайт (100%)
    ServiceKind/String : Complete Main
    Общее
    Полное имя : Warlock.01.1989.nnm_video3.ac3
    Формат : AC-3
    Формат/Информация : Audio Coding 3
    Размер файла : 142 Мбайт
    Продолжительность : 1 ч. 43 м.
    Режим общего битрейта : Постоянный
    Общий поток : 192 Кбит/сек
    Аудио
    Формат : AC-3
    Формат/Информация : Audio Coding 3
    Продолжительность : 1 ч. 43 м.
    Вид битрейта : Постоянный
    Битрейт : 192 Кбит/сек
    Каналы : 2 канала
    Расположение каналов : Front: L R
    Частота : 48, 0 КГц
    Частота кадров : 31, 250 кадров/сек (1536 SPF)
    Битовая глубина : 16 бит
    Метод сжатия : С потерями
    Размер потока : 142 Мбайт (100%)
    ServiceKind/String : Complete Main
    Общее
    Полное имя : Warlock.01.1989.nnm_video4.ac3
    Формат : AC-3
    Формат/Информация : Audio Coding 3
    Размер файла : 142 Мбайт
    Продолжительность : 1 ч. 43 м.
    Режим общего битрейта : Постоянный
    Общий поток : 192 Кбит/сек
    Аудио
    Формат : AC-3
    Формат/Информация : Audio Coding 3
    Продолжительность : 1 ч. 43 м.
    Вид битрейта : Постоянный
    Битрейт : 192 Кбит/сек
    Каналы : 2 канала
    Расположение каналов : Front: L R
    Частота : 48, 0 КГц
    Частота кадров : 31, 250 кадров/сек (1536 SPF)
    Битовая глубина : 16 бит
    Метод сжатия : С потерями
    Размер потока : 142 Мбайт (100%)
    ServiceKind/String : Complete Main
    Общее
    Полное имя : Warlock.01.1989.nnm_video5.ac3
    Формат : AC-3
    Формат/Информация : Audio Coding 3
    Размер файла : 142 Мбайт
    Продолжительность : 1 ч. 43 м.
    Режим общего битрейта : Постоянный
    Общий поток : 192 Кбит/сек
    Аудио
    Формат : AC-3
    Формат/Информация : Audio Coding 3
    Продолжительность : 1 ч. 43 м.
    Вид битрейта : Постоянный
    Битрейт : 192 Кбит/сек
    Каналы : 2 канала
    Расположение каналов : Front: L R
    Частота : 48, 0 КГц
    Частота кадров : 31, 250 кадров/сек (1536 SPF)
    Битовая глубина : 16 бит
    Метод сжатия : С потерями
    Размер потока : 142 Мбайт (100%)
    ServiceKind/String : Complete Main
    Общее
    Полное имя : Warlock.01.1989.nnm_video6.ac3
    Формат : AC-3
    Формат/Информация : Audio Coding 3
    Размер файла : 142 Мбайт
    Продолжительность : 1 ч. 43 м.
    Режим общего битрейта : Постоянный
    Общий поток : 192 Кбит/сек
    Аудио
    Формат : AC-3
    Формат/Информация : Audio Coding 3
    Продолжительность : 1 ч. 43 м.
    Вид битрейта : Постоянный
    Битрейт : 192 Кбит/сек
    Каналы : 2 канала
    Расположение каналов : Front: L R
    Частота : 48, 0 КГц
    Частота кадров : 31, 250 кадров/сек (1536 SPF)
    Битовая глубина : 16 бит
    Метод сжатия : С потерями
    Размер потока : 142 Мбайт (100%)
    ServiceKind/String : Complete Main
    Общее
    Полное имя : Warlock.01.1989.nnm_video7.ac3
    Формат : AC-3
    Формат/Информация : Audio Coding 3
    Размер файла : 146 Мбайт
    Продолжительность : 1 ч. 46 м.
    Режим общего битрейта : Постоянный
    Общий поток : 192 Кбит/сек
    Аудио
    Формат : AC-3
    Формат/Информация : Audio Coding 3
    Продолжительность : 1 ч. 46 м.
    Вид битрейта : Постоянный
    Битрейт : 192 Кбит/сек
    Каналы : 2 канала
    Расположение каналов : Front: L R
    Частота : 48, 0 КГц
    Частота кадров : 31, 250 кадров/сек (1536 SPF)
    Битовая глубина : 16 бит
    Метод сжатия : С потерями
    Размер потока : 146 Мбайт (100%)
    ServiceKind/String : Complete Main
    Общее
    Полное имя : Warlock.01.1989.nnm_video8.ac3
    Формат : AC-3
    Формат/Информация : Audio Coding 3
    Размер файла : 142 Мбайт
    Продолжительность : 1 ч. 43 м.
    Режим общего битрейта : Постоянный
    Общий поток : 192 Кбит/сек
    Аудио
    Формат : AC-3
    Формат/Информация : Audio Coding 3
    Продолжительность : 1 ч. 43 м.
    Вид битрейта : Постоянный
    Битрейт : 192 Кбит/сек
    Каналы : 2 канала
    Расположение каналов : Front: L R
    Частота : 48, 0 КГц
    Частота кадров : 31, 250 кадров/сек (1536 SPF)
    Битовая глубина : 16 бит
    Метод сжатия : С потерями
    Размер потока : 142 Мбайт (100%)
    ServiceKind/String : Complete Main
    Общее
    Полное имя : Warlock.01.1989.nnm_video9.ac3
    Формат : AC-3
    Формат/Информация : Audio Coding 3
    Размер файла : 146 Мбайт
    Продолжительность : 1 ч. 46 м.
    Режим общего битрейта : Постоянный
    Общий поток : 192 Кбит/сек
    Аудио
    Формат : AC-3
    Формат/Информация : Audio Coding 3
    Продолжительность : 1 ч. 46 м.
    Вид битрейта : Постоянный
    Битрейт : 192 Кбит/сек
    Каналы : 2 канала
    Расположение каналов : Front: L R
    Частота : 48, 0 КГц
    Частота кадров : 31, 250 кадров/сек (1536 SPF)
    Битовая глубина : 16 бит
    Метод сжатия : С потерями
    Размер потока : 146 Мбайт (100%)
    ServiceKind/String : Complete Main
    Общее
    Полное имя : Warlock.01.1989.nnm_video10.ac3
    Формат : AC-3
    Формат/Информация : Audio Coding 3
    Размер файла : 142 Мбайт
    Продолжительность : 1 ч. 43 м.
    Режим общего битрейта : Постоянный
    Общий поток : 192 Кбит/сек
    Аудио
    Формат : AC-3
    Формат/Информация : Audio Coding 3
    Продолжительность : 1 ч. 43 м.
    Вид битрейта : Постоянный
    Битрейт : 192 Кбит/сек
    Каналы : 2 канала
    Расположение каналов : Front: L R
    Частота : 48, 0 КГц
    Частота кадров : 31, 250 кадров/сек (1536 SPF)
    Битовая глубина : 16 бит
    Метод сжатия : С потерями
    Размер потока : 142 Мбайт (100%)
    ServiceKind/String : Complete Main
    Общее
    Уникальный идентификатор : 200169644488932427246481276614662626004 (0x9697456F305CE7CCBF38A4D08AA31AD4)
    Полное имя : Warlock.01.1989.nnm_videoWarlock.01.1989.nnm_video.mkv
    Формат : Matroska
    Версия формата : Version 2
    Размер файла : 2, 05 Гбайт
    Продолжительность : 1 ч. 43 м.
    Общий поток : 2842 Кбит/сек
    Название фильма : Чернокнижник - 01 (Warlock - 01) RG NNM Club Video
    Дата кодирования : UTC 2017-11-27 01: 42: 14
    Программа кодирования : mkvmerge v18.0.0 (\'Apricity\') 64-bit
    Библиотека кодирования : libebml v1.3.5 + libmatroska v1.4.8
    Attachments : Лог кодирования.log
    Видео
    Идентификатор : 1
    Формат : AVC
    Формат/Информация : Advanced Video Codec
    Профиль формата : High@L4.1
    Настройки формата : CABAC/12 Ref Frames
    Параметр CABAC формата : Да
    Параметр RefFrames формата : 12 кадров
    Идентификатор кодека : V_MPEG4/ISO/AVC
    Продолжительность : 1 ч. 43 м.
    Битрейт : 2649 Кбит/сек
    Ширина : 720 пикселей
    Высота : 392 пикселя
    Соотношение сторон : 1, 85: 1
    Режим частоты кадров : Постоянный
    Частота кадров : 23, 976 (24000/1001) кадра/сек
    Цветовое пространство : YUV
    Субдискретизация насыщенности : 4: 2: 0
    Битовая глубина : 8 бит
    Тип развёртки : Прогрессивная
    Бит/(Пиксели*Кадры) : 0.391
    Размер потока : 1, 87 Гбайт (91%)
    Заголовок : Чернокнижник - 01 (Warlock - 01)
    Библиотека кодирования : x264 core 152 r2851 ba24899
    Настройки программы : cabac=1/ref=12/deblock=1: -1: -1/analyse=0x3: 0x133/me=umh/subme=11/psy=1/psy_rd=1.00: 0.15/mixed_ref=1/me_range=64/chroma_me=1/trellis=2/8x8dct=1/cqm=0/deadzone=21, 11/fast_pskip=0/chroma_qp_offset=-3/threads=6/lookahead_threads=1/sliced_threads=0/nr=0/decimate=0/interlaced=0/bluray_compat=0/constrained_intra=0/bframes=16/b_pyramid=2/b_adapt=2/b_bias=0/direct=3/weightb=1/open_gop=0/weightp=2/keyint=240/keyint_min=23/scenecut=40/intra_refresh=0/rc_lookahead=60/rc=2pass/mbtree=0/bitrate=2649/ratetol=1.0/qcomp=0.60/qpmin=0/qpmax=69/qpstep=4/cplxblur=20.0/qblur=0.5/vbv_maxrate=50000/vbv_bufsize=62500/nal_hrd=none/filler=0/ip_ratio=1.40/pb_ratio=1.30/aq=1: 1.00
    Язык : English
    Default : Да
    Forced : Нет
    Аудио
    Идентификатор : 2
    Формат : AC-3
    Формат/Информация : Audio Coding 3
    Идентификатор кодека : A_AC3
    Продолжительность : 1 ч. 43 м.
    Вид битрейта : Постоянный
    Битрейт : 192 Кбит/сек
    Каналы : 2 канала
    Расположение каналов : Front: L R
    Частота : 48, 0 КГц
    Частота кадров : 31, 250 кадров/сек (1536 SPF)
    Битовая глубина : 16 бит
    Метод сжатия : С потерями
    Размер потока : 142 Мбайт (7%)
    Заголовок : Дублированный \'\'Мосфильм\'\' с вставками многоголосого \'\'ОРТ\'\' (AC-3, Постоянный, 192 Кбит/сек, 2 канала, 48, 0 КГц, 16 бит)
    Язык : Russian
    ServiceKind/String : Complete Main
    Default : Да
    Forced : Нет
    Текст #1
    Идентификатор : 3
    Формат : UTF-8
    Идентификатор кодека : S_TEXT/UTF8
    Идентификатор кодека/Информация : UTF-8 Plain Text
    Заголовок : Русские
    Язык : Russian
    Default : Да
    Forced : Нет
    Текст #2
    Идентификатор : 4
    Формат : UTF-8
    Идентификатор кодека : S_TEXT/UTF8
    Идентификатор кодека/Информация : UTF-8 Plain Text
    Заголовок : Английские
    Язык : English
    Default : Нет
    Forced : Нет
    Меню
    00: 00: 00.000 : en: 00: 00: 00.000
    00: 08: 24.379 : en: 00: 08: 24.379
    00: 17: 57.243 : en: 00: 17: 57.243
    00: 28: 02.389 : en: 00: 28: 02.389
    00: 35: 42.390 : en: 00: 35: 42.390
    00: 44: 23.452 : en: 00: 44: 23.452
    00: 55: 50.013 : en: 00: 55: 50.013
    01: 03: 12.497 : en: 01: 03: 12.497
    01: 11: 49.013 : en: 01: 11: 49.013
    01: 24: 11.463 : en: 01: 24: 11.463
    01: 32: 18.783 : en: 01: 32: 18.783
    01: 37: 37.351 : en: 01: 37: 37.351

    Скриншоты для ознакомления



    Все одноименные релизы в Клубе
    Время раздачи: 24/7 до первых 10 скачавших, потом ухожу с раздачи


    Онлайн видео Чернокнижник



    Чернокнижник/Warlock (1989) BDRip [H.264]
    загрузка...
    Рейтинг →
     (голосов: 1, оценка 5/5, голосовать можно 1 раз )

    Другие торренты по теме:

  • Чернокнижник / Warlock (1989) BDRip [1080p] скачать через торрент бесплатно
  • Чернокнижник / Warlock (1989) BDRip [H.264 / 720р-LQ]
  • Чернокнижник / Warlock (1989-1993) BDRemux [H.264 / 1080p] [Дилогия]
  • Чернокнижник / Warlock (1989) BDRip [H.264 / 720p]
  • Warlock: The Curse of the Shaman / Чернокнижник: Проклятье шамана (2014) [Ru] Unofficial скачать через торрент бесплатно
  • Чернокнижник 3: Последняя битва / Warlock III: The End of Innocence (1999) WEB-DLRip [H.264]
  • Чернокнижник 2: Армагеддон / Warlock: The Armageddon (1993) BDRip [H.264 / 720p]
  • Чернокнижник 2: Армагеддон / Warlock: The Armageddon (1993) BDRip [H.264]


    • Комментарии (0):

      Информация

      Информация

        Посетители, находящиеся в группе Гости, не могут оставлять комментарии в данной новости.

        ↓ Меню




        ↓ Опрос

        Вы добавили сайт в закладки?
        Да
        Нет


        Top 10 за месяц (Фильмы)