.
Авторизация | Регистрация
Хочешь лучшие торренты? Добавь свой email!
Добавить

Торрент скачать бесплатно

» » Процесс и ошибка / Trial and Error (1997) DVDRip торрент скачать бесплатно




    Процесс и ошибка / Trial and Error (1997) DVDRip торрент скачать бесплатно

    Опубликовал: Админ | Дата: 29-11-2017, 05:00 | Просмотров: 0

    Производство: США/Larger Than Life Productions, New Line Cinema
    Жанр: Мелодрама, Комедия
    Режиссер: Джонатан Линн

    Актеры
    Майкл Ричардс, Джефф Дэниэлс, Шарлиз Терон, Джессика Стин, Остин Пендлтон, Александра Уэнтуорт, Дженнифер Кулидж, Макс Казелла, Дэйл Дай, Лоуренс Прессмэн

    Описание

    Преуспевающий адвокат с большим будущим, только что ставший партнером юридической фирмы своего будущего тестя, готовится к свадьбе. Тесть посылает его в какой-то занюханный городишко в Неваде, чтобы отсрочить суд по делу дальнего родственника, закоренелого мошенника и афериста. Друг детства адвоката, выбранный им в шаферы, опережает жениха и устраивает мальчишник, после которого быть на суде он уже физически не может (получил по морде, напился и...). Друг (по профессии он актер-неудачник) занимает его место в суде. Идет смехотворный процесс, полный ошибок и невообразимо смешных ситуаций. В сюжете появляются две женщины, круто меняющие судьбу старых друзей...

    Возраст: 0+ (для любой зрительской аудитории)
    Рейтинг MPAA: PG-13 (детям до 13 лет просмотр нежелателен)
    Продолжительность: 01: 38: 12
    Качество видео: DVDRip
    Перевод: Многоголосый закадровый
    Субтитры: отсутствуют
    Видео: Xvid, 704x352, ~1530 Kbps
    Аудио #1: Русский - AC3, 2 ch, 192 Kbps (MVO - ТВ3)
    Аудио #2: Русский - AC3, 2 ch, 192 Kbps (MVO - студия Инис)
    Аудио #3: Русский - AC3, 2 ch, 192 Kbps (MVO - Союз-Видео)

    General
    Complete name : /media/win/TORRENT/UPLOAD TORRENTS/Процесс и ошибка.avi
    Format : AVI
    Format/Info : Audio Video Interleave
    File size : 1.46 GiB
    Duration : 1 h 38 min
    Overall bit rate : 2 125 kb/s
    Director : miha2154
    Writing application : VirtualDubMod 1.5.10.2 (build 2540/release)
    Writing library : VirtualDubMod build 2540/release
    Video
    ID : 0
    Format : MPEG-4 Visual
    Format profile : Advanced Simple@L5
    Format settings : BVOP2
    Format settings, BVOP : 2
    Format settings, QPel : No
    Format settings, GMC : No warppoints
    Format settings, Matrix : Default (MPEG)
    Codec ID : XVID
    Codec ID/Hint : XviD
    Duration : 1 h 38 min
    Bit rate : 1 530 kb/s
    Width : 704 pixels
    Height : 352 pixels
    Display aspect ratio : 2.000
    Frame rate : 23.976 (24000/1001) FPS
    Color space : YUV
    Chroma subsampling : 4: 2: 0
    Bit depth : 8 bits
    Scan type : Progressive
    Compression mode : Lossy
    Bits/(Pixel*Frame) : 0.258
    Stream size : 1.05 GiB (72%)
    Writing library : XviD 1.1.0 (UTC 2005-11-22)
    Audio #1
    ID : 1
    Format : AC-3
    Format/Info : Audio Coding 3
    Codec ID : 2000
    Duration : 1 h 38 min
    Bit rate mode : Constant
    Bit rate : 192 kb/s
    Channel(s) : 2 channels
    Channel positions : Front: L R
    Sampling rate : 48.0 kHz
    Frame rate : 31.250 FPS (1536 SPF)
    Bit depth : 16 bits
    Compression mode : Lossy
    Stream size : 135 MiB (9%)
    Alignment : Split accross interleaves
    Interleave, duration : 42 ms (1.00 video frame)
    Interleave, preload duration : 500 ms
    Service kind : Complete Main
    Audio #2
    ID : 2
    Format : AC-3
    Format/Info : Audio Coding 3
    Codec ID : 2000
    Duration : 1 h 38 min
    Bit rate mode : Constant
    Bit rate : 192 kb/s
    Channel(s) : 2 channels
    Channel positions : Front: L R
    Sampling rate : 48.0 kHz
    Frame rate : 31.250 FPS (1536 SPF)
    Bit depth : 16 bits
    Compression mode : Lossy
    Stream size : 135 MiB (9%)
    Alignment : Split accross interleaves
    Interleave, duration : 42 ms (1.00 video frame)
    Interleave, preload duration : 500 ms
    Service kind : Complete Main
    Audio #3
    ID : 3
    Format : AC-3
    Format/Info : Audio Coding 3
    Codec ID : 2000
    Duration : 1 h 38 min
    Bit rate mode : Constant
    Bit rate : 192 kb/s
    Channel(s) : 2 channels
    Channel positions : Front: L R
    Sampling rate : 48.0 kHz
    Frame rate : 31.250 FPS (1536 SPF)
    Bit depth : 16 bits
    Compression mode : Lossy
    Stream size : 135 MiB (9%)
    Alignment : Split accross interleaves
    Interleave, duration : 42 ms (1.00 video frame)
    Interleave, preload duration : 500 ms
    Service kind : Complete Main

    Скриншоты для ознакомления



    Все одноименные релизы в Клубе
    Время раздачи: с 09: 00 до 22: 00 до пяти скачавших (до появления первых 3-5 скачавших)


    Онлайн видео Процесс и ошибка



    Процесс и ошибка/Trial and Error (1997) DVDRip
    загрузка...
    Рейтинг →
     (голосов: 1, оценка 4/5, голосовать можно 1 раз )

    Другие торренты по теме:

  • Процесс (2014) DVDRip
  • И. Р. Григулевич | Эрнесто Че Гевара и революционный процесс в Латинской Америке (1984) [DJVU]
  • Кай Метов - Воспитательный процесс (2008) [FLAC|image+.cue]<Pop>
  • Процесс (2013) WEB-DLRip [H.264 / 720p-LQ] (серии 1-4 из 4) скачать через торрент бесплатно
  • Процесс (2013) WEB-DLRip [H.264 / 1080p-LQ] (серии 1-4 из 4) скачать через торрент бесплатно
  • Нюрнбергский процесс / Judgment at Nuremberg (1961) BDRip скачать через торрент бесплатно
  • Процесс. Выпуск 1 (2015.09.19) SATRip скачать через торрент бесплатно
  • Ю. П. Зуев | Социально-исторический процесс и критика его богословской интерпретации (1986) [DJVU] скачать через торрент бесплатно


    • Комментарии (0):

      Информация

      Информация

        Посетители, находящиеся в группе Гости, не могут оставлять комментарии в данной новости.

        ↓ Меню




        ↓ Опрос

        Вы добавили сайт в закладки?
        Да
        Нет


        Top 10 за месяц (Фильмы)