.
Авторизация | Регистрация
Хочешь лучшие торренты? Добавь свой email!
Добавить

Торрент скачать бесплатно

» » Мальчики-налетчики / Takers (2010) BDRip [H.264 / 1080p-LQ] торрент скачать бесплатно




    Мальчики-налетчики / Takers (2010) BDRip [H.264 / 1080p-LQ] торрент скачать бесплатно

    Опубликовал: Админ | Дата: 29-11-2017, 05:00 | Просмотров: 0

    Производство: США/Screen Gems
    Жанр: боевик, криминал
    Режиссер: Джон Льюсенхоп
    Продюсер: Джейсон Гетер, Крис Браун, Гэбриел Коссес

    Актеры
    Пол Уокер, Хейден Кристенсен, Мэтт Диллон, Зои Салдана, Марианн Жан-Баптист, Крис Браун, Майкл Или, Идрис Эльба, Стив Харрис, Ти Ай, Джей Эрнандес

    Описание

    После серии блестяще спланированных ограблений банков команда взломщиков-профи, известных на всю Калифорнию, решается пойти на последнее, самое прибыльное дело. Такой шанс просто нельзя упустить, ведь на кону 25 миллионов долларов. Вот только есть один упертый полицейский, который готов на все, чтобы уничтожить банду мальчиков-налетчиков…

    Возраст: 16+ (зрителям, достигшим 16 лет)
    Рейтинг MPAA: PG-13 (детям до 13 лет просмотр нежелателен)

    Релиз от: Magnetto83
    Продолжительность: 01: 47: 05
    Качество: BDRip 1080p-LQ
    Перевод: Дублированный (Лицензия BD CEE)
    Субтитры: Русские, Английские
    Видео: H.264/AVC, 1920x800, (2.40: 1), 5388 kb/s, 23.976 fps
    Аудио: AC3, 6 ch, 448 kbps - Русский
    General
    Unique ID : 211107179474501768297349656477992867493 (0x9ED1C38B2EBC52DE934382BA4C31D6A5)
    Complete name : Мальчики-Налётчики 2010 Dub Rus BDRip 1080p.mkv
    Format : Matroska
    Format version : Version 4/Version 2
    File size : 4.35 GiB
    Duration : 1 h 47 min
    Overall bit rate : 5 813 kb/s
    Movie name : Мальчики-Налётчики 2010 Dub Rus BDRip 1080p By R.G. GoldenShara
    Encoded date : UTC 2017-09-22 20: 27: 49
    Writing application : mkvmerge v7.8.0 (\'River Man\') 32bit built on Mar 27 2015 16: 18: 02
    Writing library : libebml v1.3.1 + libmatroska v1.4.2
    Cover : Yes
    Attachments : Cover.jpg
    Video
    ID : 1
    Format : AVC
    Format/Info : Advanced Video Codec
    Format profile : High@L4.1
    Format settings, CABAC : Yes
    Format settings, RefFrames : 5 frames
    Codec ID : V_MPEG4/ISO/AVC
    Duration : 1 h 47 min
    Bit rate : 5 388 kb/s
    Width : 1 920 pixels
    Height : 800 pixels
    Display aspect ratio : 2.40: 1
    Frame rate mode : Constant
    Frame rate : 23.976 (24000/1001) FPS
    Color space : YUV
    Chroma subsampling : 4: 2: 0
    Bit depth : 8 bits
    Scan type : Progressive
    Bits/(Pixel*Frame) : 0.146
    Stream size : 4.01 GiB (92%)
    Title : Мальчики-Налётчики 2010 Dub Rus BDRip 1080p By Magnetto 83
    Writing library : x264 core 146 r2538 121396c
    Encoding settings : cabac=1/ref=5/deblock=1: -3: -3/analyse=0x3: 0x113/me=umh/subme=11/psy=1/psy_rd=1.00: 0.00/mixed_ref=1/me_range=32/chroma_me=1/trellis=2/8x8dct=1/cqm=0/deadzone=21, 11/fast_pskip=0/chroma_qp_offset=-2/threads=3/lookahead_threads=1/sliced_threads=0/nr=0/decimate=1/interlaced=0/bluray_compat=0/constrained_intra=0/bframes=8/b_pyramid=2/b_adapt=2/b_bias=0/direct=3/weightb=1/open_gop=0/weightp=2/keyint=250/keyint_min=23/scenecut=40/intra_refresh=0/rc=2pass/mbtree=0/bitrate=5388/ratetol=1.0/qcomp=0.60/qpmin=0/qpmax=69/qpstep=4/cplxblur=20.0/qblur=0.5/ip_ratio=1.40/pb_ratio=1.30/aq=2: 1.00
    Language : English
    Default : Yes
    Forced : No
    Audio
    ID : 2
    Format : AC-3
    Format/Info : Audio Coding 3
    Format settings, Endianness : Big
    Codec ID : A_AC3
    Duration : 1 h 47 min
    Bit rate mode : Constant
    Bit rate : 448 kb/s
    Channel(s) : 6 channels
    Channel positions : Front: L C R, Side: L R, LFE
    Sampling rate : 48.0 kHz
    Frame rate : 31.250 FPS (1536 SPF)
    Bit depth : 16 bits
    Compression mode : Lossy
    Stream size : 343 MiB (8%)
    Title : DD 5.1 @ 448 Kbps - Дубляж | Blu-Ray CEE |
    Language : Russian
    Service kind : Complete Main
    Default : Yes
    Forced : No
    Text #1
    ID : 3
    Format : UTF-8
    Codec ID : S_TEXT/UTF8
    Codec ID/Info : UTF-8 Plain Text
    Duration : 1 h 40 min
    Bit rate : 91 b/s
    Count of elements : 1188
    Stream size : 67.5 KiB (0%)
    Title : Полные
    Language : Russian
    Default : No
    Forced : No
    Text #2
    ID : 4
    Format : UTF-8
    Codec ID : S_TEXT/UTF8
    Codec ID/Info : UTF-8 Plain Text
    Duration : 1 h 40 min
    Bit rate : 62 b/s
    Count of elements : 1279
    Stream size : 46.5 KiB (0%)
    Title : Full
    Language : English
    Default : No
    Forced : No
    Menu
    00: 00: 00.000 : en: 00: 00: 00.000
    00: 04: 13.170 : en: 00: 04: 13.170
    00: 14: 54.560 : en: 00: 14: 54.560
    00: 20: 07.623 : en: 00: 20: 07.623
    00: 24: 03.484 : en: 00: 24: 03.484
    00: 32: 46.173 : en: 00: 32: 46.173
    00: 35: 20.076 : en: 00: 35: 20.076
    00: 44: 19.448 : en: 00: 44: 19.448
    00: 52: 50.250 : en: 00: 52: 50.250
    00: 58: 38.557 : en: 00: 58: 38.557
    01: 02: 27.702 : en: 01: 02: 27.702
    01: 06: 16.764 : en: 01: 06: 16.764
    01: 13: 14.682 : en: 01: 13: 14.682
    01: 19: 49.410 : en: 01: 19: 49.410
    01: 23: 39.389 : en: 01: 23: 39.389
    01: 30: 36.473 : en: 01: 30: 36.473
    YouTube

    Скриншоты для ознакомления


    Релизы фильма Мальчики-налетчики/Takers на NNM Club
    Время раздачи: с 9: 00 до 23: 00


    Онлайн видео Мальчики-налетчики



    Мальчики-налетчики/Takers (2010) BDRip [H.264/1080p-LQ]
    загрузка...
    Рейтинг →
     (голосов: 1, оценка 5/5, голосовать можно 1 раз )

    Другие торренты по теме:

  • Мальчики-налетчики / Takers (2010) HDRip


    • Комментарии (0):

      Информация

      Информация

        Посетители, находящиеся в группе Гости, не могут оставлять комментарии в данной новости.

        ↓ Меню




        ↓ Опрос

        Вы добавили сайт в закладки?
        Да
        Нет


        Top 10 за месяц (Фильмы)