.
Авторизация | Регистрация
Хочешь лучшие торренты? Добавь свой email!
Добавить

Торрент скачать бесплатно

» » Полу-Нельсон / Half Nelson (2006) DVDRip [MVO] торрент скачать бесплатно




    Полу-Нельсон / Half Nelson (2006) DVDRip [MVO] торрент скачать бесплатно

    Опубликовал: Админ | Дата: 29-11-2017, 05:00 | Просмотров: 0

    Производство: США/Hunting Lane Films, Journeyman Pictures, Original Media
    Жанр: Драма
    Режиссер: Райан Флек

    Актеры
    Райан Гослинг, Шарика Эппс, Энтони Маки, Моник Кёрнен, Дэнис О’Хэйр, Дебора Раш, Джей О. Сэндерс, Коллинс Пенни

    Описание

    Учитель средней школы употребляет наркотики… Он начинает дружить со своей ученицей, после того как она раскрывает его секрет. Во что же выльется эта странная дружба?

    Возраст: 18+ (зрителям, достигшим 18 лет. запрещено для детей)
    Рейтинг MPAA: R (лицам до 17 лет обязательно присутствие взрослого)
    Продолжительность: 01: 46: 42
    Качество видео: DVDRip
    Перевод: Двуголосый закадровый, любительский (Ozz)
    Автор перевода: El Brujo
    Субтитры: Русские (отдельным файлом), Английские (отдельным файлом)
    Видео: Xvid, 704x400, ~1757 Kbps
    Аудио #1: Русский - AC3, 2 ch, 192 Kbps
    Аудио #2: Английский - AC3, 6 ch, 448 Kbps (отдельным файлом)

    General
    Complete name : /media/win/TORRENT/UPLOAD TORRENTS/Полу Нельсон/Полу Нельсон.avi
    Format : AVI
    Format/Info : Audio Video Interleave
    File size : 1.46 GiB
    Duration : 1 h 46 min
    Overall bit rate : 1 959 kb/s
    Director : derdevil13
    Writing application : VirtualDubMod 1.5.10.3 |www.virtualdub-fr.org|| (build 2550/release)
    Video
    ID : 0
    Format : MPEG-4 Visual
    Format profile : Advanced Simple@L5
    Format settings : BVOP2/Custom Matrix
    Format settings, BVOP : 2
    Format settings, QPel : No
    Format settings, GMC : No warppoints
    Format settings, Matrix : Custom
    Codec ID : XVID
    Codec ID/Hint : XviD
    Duration : 1 h 46 min
    Bit rate : 1 758 kb/s
    Width : 704 pixels
    Height : 400 pixels
    Display aspect ratio : 16: 9
    Frame rate : 23.976 (24000/1001) FPS
    Color space : YUV
    Chroma subsampling : 4: 2: 0
    Bit depth : 8 bits
    Scan type : Progressive
    Compression mode : Lossy
    Bits/(Pixel*Frame) : 0.260
    Stream size : 1.31 GiB (90%)
    Writing library : XviD 73
    Audio
    ID : 1
    Format : AC-3
    Format/Info : Audio Coding 3
    Codec ID : 2000
    Duration : 1 h 46 min
    Bit rate mode : Constant
    Bit rate : 192 kb/s
    Channel(s) : 2 channels
    Channel positions : Front: L R
    Sampling rate : 48.0 kHz
    Frame rate : 31.250 FPS (1536 SPF)
    Bit depth : 16 bits
    Compression mode : Lossy
    Stream size : 147 MiB (10%)
    Alignment : Split accross interleaves
    Interleave, duration : 42 ms (1.00 video frame)
    Interleave, preload duration : 500 ms
    Service kind : Complete Main
    General
    Complete name : /media/win/TORRENT/UPLOAD TORRENTS/Полу Нельсон/Полу Нельсон_ENG.ac3
    Format : AC-3
    Format/Info : Audio Coding 3
    File size : 342 MiB
    Duration : 1 h 46 min
    Overall bit rate mode : Constant
    Overall bit rate : 448 kb/s
    Audio
    Format : AC-3
    Format/Info : Audio Coding 3
    Duration : 1 h 46 min
    Bit rate mode : Constant
    Bit rate : 448 kb/s
    Channel(s) : 6 channels
    Channel positions : Front: L C R, Side: L R, LFE
    Sampling rate : 48.0 kHz
    Frame rate : 31.250 FPS (1536 SPF)
    Bit depth : 16 bits
    Compression mode : Lossy
    Stream size : 342 MiB (100%)
    Service kind : Complete Main


    Онлайн видео Полу-Нельсон



    Полу-Нельсон/Half Nelson (2006) DVDRip [MVO]
    загрузка...
    Рейтинг →
     (голосов: 1, оценка 3/5, голосовать можно 1 раз )

    Другие торренты по теме:

  • Полу-Нельсон / Half Nelson (2006) HDTVRip [H.264 / 720p] скачать через торрент бесплатно


    • Комментарии (0):

      Информация

      Информация

        Посетители, находящиеся в группе Гости, не могут оставлять комментарии в данной новости.

        ↓ Меню




        ↓ Опрос

        Вы добавили сайт в закладки?
        Да
        Нет


        Top 10 за месяц (Фильмы)