.
Авторизация | Регистрация
Хочешь лучшие торренты? Добавь свой email!
Добавить

Торрент скачать бесплатно

» » Моя земля / Under sandet (2015) BDRip [H.264 / 1080p] торрент скачать бесплатно




    Моя земля / Under sandet (2015) BDRip [H.264 / 1080p] торрент скачать бесплатно

    Опубликовал: Админ | Дата: 9-11-2017, 05:00 | Просмотров: 0

    Производство: Дания, Германия, Amusement Park Films, Nordisk Film A/S, Zweites Deutsches Fernsehen (ZDF)
    Жанр: Драма, Военный
    Режиссер: Мартин Зандвлиет

    Актеры
    Роланд Мюллер, Миккель Боэ Фёльсгор, Луис Хофманн, Йоэль Басман, Эмиль Бушов, Оскар Бушов, Оскар Бёкельманн, Лаура Бро, Зои Зандвлиет, Леон Зайдель, Александер Зайдель, Максимилиан Бек

    Описание

    Май 1945 года. Дания постепенно приходит в себя после оккупации и господства Германии. Однако датское западное побережье всё ещё заминировано немецкими наземными минами и для его очистки от мин привлечены две тысячи немецких военнопленных. В распоряжение сержанта датской армии Карла Расмуссена поступают совсем молоденькие немецкие солдаты, мальчишки. Они вынуждены учиться нелёгкому сапёрному делу, в котором ошибаются только один раз…

    Рейтинг MPAA: R (лицам до 17 лет обязательно присутствие взрослого)
    Релиз от: RG NNM Club Video
    Продолжительность: 01: 41: 22
    Качество видео: BDRip
    Перевод: Профессиональный многоголосый (iTunes), одноголосый закадровый
    Субтитры: русские (полные), английские (форс., полные)
    Видео: AVC/H.264, 1920x804, ~ 8, 5 mbps
    Аудио 1: AC3, 6 ch, 384 Kbps - Русский (iTunes)
    Аудио 1: AC3, 6 ch, 448 Kbps - Русский (zamez)
    Аудио 2: DTS, 6 ch, 768 Kbps - Немецкий

    x264 info: frame I: 979 Avg QP: 14.89 size: 201425
    x264 info: frame P: 36991 Avg QP: 16.03 size: 77590
    x264 info: frame B: 108019 Avg QP: 17.80 size: 31362
    Unique ID : 252754867635876516244789991464025950027 (0xBE26D11AEA83C441876ACEDE76AB874B)
    Complete name : D: TempNNM-clubМоя земля.2015.nnm_video.mkv
    Format : Matroska
    Format version : Version 4/Version 2
    File size : 7.15 GiB
    Duration : 1h 41mn
    Overall bit rate : 10.1 Mbps
    Movie name : Land of Mine (2015)
    Encoded date : UTC 2017-11-08 02: 23: 41
    Writing application : mkvmerge v9.8.0 (\'Kuglblids\') 64bit
    Writing library : libebml v1.3.4 + libmatroska v1.4.5
    Video
    ID : 1
    Format : AVC
    Format/Info : Advanced Video Codec
    Format profile : High@L4.1
    Format settings, CABAC : Yes
    Format settings, ReFrames : 5 frames
    Codec ID : V_MPEG4/ISO/AVC
    Duration : 1h 41mn
    Bit rate : 8 500 Kbps
    Width : 1 920 pixels
    Height : 804 pixels
    Display aspect ratio : 2.40: 1
    Frame rate mode : Constant
    Frame rate : 24.000 fps
    Color space : YUV
    Chroma subsampling : 4: 2: 0
    Bit depth : 8 bits
    Scan type : Progressive
    Bits/(Pixel*Frame) : 0.229
    Stream size : 5.87 GiB (82%)
    Writing library : x264 core 152 r2851M ba24899
    Encoding settings : cabac=1/ref=5/deblock=1: -3: -3/analyse=0x3: 0x113/me=umh/subme=9/psy=1/psy_rd=1.05: 0.10/mixed_ref=1/me_range=24/chroma_me=1/trellis=2/8x8dct=1/cqm=0/deadzone=21, 11/fast_pskip=0/chroma_qp_offset=-3/threads=5/lookahead_threads=1/sliced_threads=0/nr=0/decimate=1/interlaced=0/bluray_compat=0/constrained_intra=0/bframes=7/b_pyramid=2/b_adapt=2/b_bias=0/direct=1/weightb=1/open_gop=0/weightp=2/keyint=240/keyint_min=24/scenecut=40/intra_refresh=0/rc=2pass/mbtree=0/bitrate=8500/ratetol=1.0/qcomp=0.70/qpmin=3/qpmax=69/qpstep=4/cplxblur=20.0/qblur=0.5/ip_ratio=1.40/pb_ratio=1.30/aq=2: 1.00
    Default : Yes
    Forced : No
    Audio #1
    ID : 2
    Format : AC-3
    Format/Info : Audio Coding 3
    Mode extension : CM (complete main)
    Format settings, Endianness : Big
    Codec ID : A_AC3
    Duration : 1h 41mn
    Bit rate mode : Constant
    Bit rate : 384 Kbps
    Channel(s) : 6 channels
    Channel positions : Front: L C R, Side: L R, LFE
    Sampling rate : 48.0 KHz
    Bit depth : 16 bits
    Compression mode : Lossy
    Stream size : 278 MiB (4%)
    Title : MVO | iTunes
    Language : Russian
    Default : No
    Forced : No
    Audio #2
    ID : 3
    Format : AC-3
    Format/Info : Audio Coding 3
    Mode extension : CM (complete main)
    Format settings, Endianness : Big
    Codec ID : A_AC3
    Duration : 1h 41mn
    Bit rate mode : Constant
    Bit rate : 448 Kbps
    Channel(s) : 6 channels
    Channel positions : Front: L C R, Side: L R, LFE
    Sampling rate : 48.0 KHz
    Bit depth : 16 bits
    Compression mode : Lossy
    Stream size : 325 MiB (4%)
    Title : VO/zamez
    Language : Russian
    Default : Yes
    Forced : No
    Audio #3
    ID : 4
    Format : DTS
    Format/Info : Digital Theater Systems
    Mode : 16
    Format settings, Endianness : Big
    Codec ID : A_DTS
    Duration : 1h 41mn
    Bit rate mode : Constant
    Bit rate : 768 Kbps
    Channel(s) : 6 channels
    Channel positions : Front: L C R, Side: L R, LFE
    Sampling rate : 48.0 KHz
    Bit depth : 16 bits
    Compression mode : Lossy
    Stream size : 557 MiB (8%)
    Title : Original
    Language : German
    Default : No
    Forced : No
    Text #1
    ID : 5
    Format : UTF-8
    Codec ID : S_TEXT/UTF8
    Codec ID/Info : UTF-8 Plain Text
    Title : adelstein_s
    Language : Russian
    Default : Yes
    Forced : No
    Text #2
    ID : 6
    Format : UTF-8
    Codec ID : S_TEXT/UTF8
    Codec ID/Info : UTF-8 Plain Text
    Title : Original/Forced
    Language : English
    Default : No
    Forced : No
    Text #3
    ID : 7
    Format : UTF-8
    Codec ID : S_TEXT/UTF8
    Codec ID/Info : UTF-8 Plain Text
    Title : ENGLiSH
    Language : English
    Default : No
    Forced : No

    Скриншоты для ознакомления



    Все одноименные релизы в Клубе
    Время раздачи: 24/7 (до появления первых 3-5 скачавших)


    Онлайн видео Моя земля



    Моя земля/Under sandet (2015) BDRip [H.264/1080p]
    загрузка...
    Рейтинг →
     (голосов: 1, оценка 3/5, голосовать можно 1 раз )

    Другие торренты по теме:

  • Моя земля / Under sandet (2015) BDRip [H.264 / 1080p] [DAN / RU, DAN Sub]
  • Моя земля / Under sandet (2015) BDRip [H.264 / 1080p]
  • Моя земля / Under sandet (2015) HDRip
  • Моя земля / Under sandet / Land Of Mine (2015) BDRip [H.264 / 720p]
  • Моя земля / Under sandet (2015) BDRip [H.264 / 1080p] [PR]


    • Комментарии (0):

      Информация

      Информация

        Посетители, находящиеся в группе Гости, не могут оставлять комментарии в данной новости.

        ↓ Меню




        ↓ Опрос

        Вы добавили сайт в закладки?
        Да
        Нет


        Top 10 за месяц (Фильмы)