.
Авторизация | Регистрация
Хочешь лучшие торренты? Добавь свой email!
Добавить

Торрент скачать бесплатно

» » Другая Жизнь / OtherLife (2017) WEB-DLRip [MVO] торрент скачать бесплатно




    Другая Жизнь / OtherLife (2017) WEB-DLRip [MVO] торрент скачать бесплатно

    Опубликовал: Админ | Дата: 4-11-2017, 05:00 | Просмотров: 4

    Производство: Австралия/Cherry Road Films LLC, Head Gear Films, Kreo Films FZ, Metrol Technology, See Pictures, WBMC
    Жанр: Фантастика, триллер, криминал, детектив
    Режиссер: Бен С. Лукас

    Актеры
    Джессика Де Гау, Томас Кокерел, Т.Дж. Пауэр, Лайам Грэхэм, Адам Ти Перкинс, Келси Андерсон, Кларенс Джон Райан, Хоа Сюаньдэ

    Описание

    Рэн Амари — главный изобретатель нового революционного препарата. ДругаяЖизнь расширяет восприятие времени и создаёт виртуальную реальность в голове человека. С ДругойЖизнью доли секунд в реальном времени ощущаются, как часы или дни. Пока Рэн и её коллеги пытаются запустить препарат в производство, правительство решает использовать его как радикальное решение для переполненных тюрем. С помощью препарата можно создать виртуальные камеры, где преступники могут отбывать долгий срок всего за минуты в реальном времени. Рэн идёт против правительства и оказывается в тюремной клетке собственного разума.

    Дата мировой премьеры: 16 июня 2017
    Продолжительность: 01: 35: 35
    Качество видео: WEB-DLRip
    Перевод: Профессиональный многоголосый (Синема УС)
    Субтитры: Отсутствуют
    Видео: MPEG4, XviD, 720x304 (2.35: 1), 24.000 fps, 1 833 Kbps (0.349 bit/pixel)
    Аудио: AC-3, 48.0 KHz, 2 ch, 192 Kbps, CBR

    Общее
    Полное имя : D: NNMДругая ЖизньOther Life 2017 Web-DLRip.avi
    Формат : AVI
    Формат/Информация : Audio Video Interleave
    Размер файла : 1, 36 Гбайт
    Продолжительность : 1 ч. 35 м.
    Общий поток : 2035 Кбит/сек
    Программа кодирования : VirtualDubMod 1.5.10.3 (build 2550/release)
    Библиотека кодирования : VirtualDubMod build 2550/release
    Видео
    Идентификатор : 0
    Формат : MPEG-4 Visual
    Профиль формата : Advanced Simple@L5
    Параметр BVOP формата : 2
    Параметр QPel формата : Нет
    Параметр GMC формата : Без точки перехода
    Параметр матрицы формата : Выборочная
    Идентификатор кодека : XVID
    Идентификатор кодека/Подсказка : XviD
    Продолжительность : 1 ч. 35 м.
    Битрейт : 1833 Кбит/сек
    Ширина : 720 пикселей
    Высота : 304 пикселя
    Соотношение сторон : 2, 35: 1
    Частота кадров : 24, 000 кадра/сек
    Цветовое пространство : YUV
    Субдискретизация насыщенности : 4: 2: 0
    Битовая глубина : 8 бит
    Тип развёртки : Прогрессивная
    Метод сжатия : С потерями
    Бит/(Пиксели*Кадры) : 0.349
    Размер потока : 1, 22 Гбайт (90%)
    Библиотека кодирования : XviD 1.2.1 (UTC 2008-12-04)
    Аудио
    Идентификатор : 1
    Формат : AC-3
    Формат/Информация : Audio Coding 3
    Расширение режима : CM (complete main)
    Параметр Endianness формата : Big
    Идентификатор кодека : 2000
    Продолжительность : 1 ч. 35 м.
    Вид битрейта : Постоянный
    Битрейт : 192 Кбит/сек
    Каналы : 2 канала
    Расположение каналов : Front: L R
    Частота : 48, 0 КГц
    Частота кадров : 31, 250 кадров/сек (1536 spf)
    Битовая глубина : 16 бит
    Метод сжатия : С потерями
    Задержка видео : 22 мс.
    Размер потока : 131 Мбайт (9%)
    Выравнивание : Разделение по промежуткам
    Продолжительность промежутка : 42 мс. (1, 00 видеокадр)
    Время предзагрузки промежутка : 500 мс.

    Скриншоты для ознакомления



    Все одноименные релизы в Клубе
    Время раздачи: Круглосуточно до 10 скачавших


    Онлайн видео Другая Жизнь



    Другая Жизнь/OtherLife (2017) WEB-DLRip [MVO]
    загрузка...
    Рейтинг →
     (голосов: 1, оценка 4/5, голосовать можно 1 раз )

    Другие торренты по теме:

  • Другая жизнь женщины / La vie dune autre (2012) BDRemux [H.264 / 1080p] скачать через торрент бесплатно
  • Другая жизнь Маргариты (2015) HDTVRip (серии 1-2 из 2)
  • Другая жизнь / OtherLife (2017) WEB-DLRip [MVO] [AD]
  • Другая Жизнь / OtherLife (2017) WEB-DL [H.264 / 1080p-LQ] [MVO]
  • Другая Жизнь / OtherLife (2017) WEB-DLRip [H.264]
  • Другая Жизнь / OtherLife (2017) WEB-DLRip [H.264]
  • Светлана Федотова-Ивашкевич | Другая, следующая жизнь (2017) [MP3]


    • Комментарии (0):

      Информация

      Информация

        Посетители, находящиеся в группе Гости, не могут оставлять комментарии в данной новости.

        ↓ Меню




        ↓ Опрос

        Вы добавили сайт в закладки?
        Да
        Нет


        Top 10 за месяц (Фильмы)