.
Авторизация | Регистрация
Хочешь лучшие торренты? Добавь свой email!
Добавить

Торрент скачать бесплатно

» » Последний богатырь (2017) TS [AD] торрент скачать бесплатно




    Последний богатырь (2017) TS [AD] торрент скачать бесплатно

    Опубликовал: Админ | Дата: 29-10-2017, 05:00 | Просмотров: 11

    Производство: Россия, Кинослово, Walt Disney Pictures, Yellow, Black White
    Жанр: Комедия, Семейный
    Режиссер: Дмитрий Дьяченко
    Продюсер: Марина Жигалова-Озкан, Эдуард Илоян

    Актеры
    Виктор Хориняк, Мила Сивацкая, Екатерина Вилкова, Елена Яковлева, Константин Лавроненко, Евгений Дятлов, Александр Семчев, Сергей Бурунов, Александр Кухаренко, Марина Калецкая

    Описание

    Иван, обычный парень, по воле случая переносится из современной Москвы в фантастическую страну Белогорье. В этом параллельном мире живут герои русских сказок, волшебство — неотъемлемая часть быта, а спорные вопросы решаются битвой на богатырских мечах. Неожиданно Иван оказывается в самом центре борьбы светлых и темных сил, вот только непонятно, почему главная роль в происходящих событиях, по всеобщему мнению, уготована именно ему.

    Возраст: 12+ (зрителям, достигшим 12 лет)
    Рейтинг MPAA: этот продукт не был классифицирован
    Дата мировой премьеры: 19 ноября 2017
    Дата российской премьеры: 26 октября 2017, WDSSPR
    Продолжительность: 01: 48: 20
    Качество видео: TS
    Перевод: Не требуется (Русский)
    Субтитры: Отсутствуют
    Реклама: присутствует голосовая, текстовая и видео реклама
    Видео: XviD, 720x320 (2, 25: 1), ~1605 Kbps, 23, 976 fps
    Аудио: AC-3, 2.0, 48 kHz, 192 kbps

    Общее
    Полное имя : D: ФильмыPosledniy.bogatyr\'.2017.TS.1400MB.avi
    Формат : AVI
    Формат/Информация : Audio Video Interleave
    Размер файла : 1, 37 Гбайт
    Продолжительность : 1 ч. 48 м.
    Общий поток : 1806 Кбит/сек
    Программа кодирования : VirtualDubMod 1.5.10.2 (build 2540/release)
    Библиотека кодирования : VirtualDubMod build 2540/release
    Видео
    Идентификатор : 0
    Формат : MPEG-4 Visual
    Профиль формата : Advanced Simple@L5
    Настройки формата : BVOP2
    Параметр BVOP формата : 2
    Параметр QPel формата : Нет
    Параметр GMC формата : Без точки перехода
    Параметр матрицы формата : Default (MPEG)
    Идентификатор кодека : XVID
    Идентификатор кодека/Подсказка : XviD
    Продолжительность : 1 ч. 48 м.
    Битрейт : 1605 Кбит/сек
    Ширина : 720 пикселей
    Высота : 320 пикселей
    Соотношение сторон : 2, 25: 1
    Частота кадров : 23, 976 (24000/1001) кадра/сек
    Цветовое пространство : YUV
    Субдискретизация насыщенности : 4: 2: 0
    Битовая глубина : 8 бит
    Тип развёртки : Прогрессивная
    Метод сжатия : С потерями
    Бит/(Пиксели*Кадры) : 0.291
    Размер потока : 1, 21 Гбайт (89%)
    Библиотека кодирования : XviD 1.2.1 (UTC 2008-12-04)
    Аудио
    Идентификатор : 1
    Формат : AC-3
    Формат/Информация : Audio Coding 3
    Параметр Endianness формата : Big
    Идентификатор кодека : 2000
    Продолжительность : 1 ч. 48 м.
    Вид битрейта : Постоянный
    Битрейт : 192 Кбит/сек
    Каналы : 2 канала
    Расположение каналов : Front: L R
    Частота : 48, 0 КГц
    Частота кадров : 31, 250 кадров/сек (1536 SPF)
    Битовая глубина : 16 бит
    Метод сжатия : С потерями
    Размер потока : 149 Мбайт (11%)
    Выравнивание : Разделение по промежуткам
    Продолжительность промежутка : 42 мс. (1, 00 видеокадр)
    Время предзагрузки промежутка : 500 мс.
    ServiceKind/String : Complete Main

    Скриншоты для ознакомления


    Все одноименные релизы в Клубе
    Время раздачи: 24/7 (до появления первых 3-5 скачавших)


    Онлайн видео Любовь в городе ангелов (2017) WEB-DLRip [H.264



    Последний богатырь (2017) TS [AD]
    загрузка...
    Рейтинг →
     (голосов: 1, оценка 4/5, голосовать можно 1 раз )

    Другие торренты по теме:

  • Последний богатырь (2017) TS [H.264 / 720p-LQ] [AD]
  • Последний богатырь (2017) WEB-DL [H.264 / 1080p-LQ]
  • Последний богатырь (2017) WEB-DLRip
  • Последний богатырь (2017) WEB-DL [H.264 / 720p-LQ]
  • Последний богатырь (2017) WEB-DLRip [H.264]
  • Последний богатырь (2017) WEB-DL [720p] ATV
  • Последний богатырь (2017) WEB-DL [1080p] ATV
  • Последний богатырь (2017) WEB-DLRip [480p] iPod


    • Комментарии (0):

      Информация

      Информация

        Посетители, находящиеся в группе Гости, не могут оставлять комментарии в данной новости.

        ↓ Меню




        ↓ Опрос

        Вы добавили сайт в закладки?
        Да
        Нет


        Top 10 за месяц (Фильмы)