.
Авторизация | Регистрация
Хочешь лучшие торренты? Добавь свой email!
Добавить

Торрент скачать бесплатно

» » Овердрайв / Overdrive (2017) WEB-DLRip торрент скачать бесплатно




    Овердрайв / Overdrive (2017) WEB-DLRip торрент скачать бесплатно

    Опубликовал: Админ | Дата: 18-10-2017, 05:00 | Просмотров: 4

    Производство: Франция, США/Kinology
    Жанр: боевик, триллер
    Режиссер: Антонио Негрет

    Актеры
    Ана де Армас, Скотт Иствуд, Гайя Уайсс, Клеменс Шик, Фредди Торп, Симон Абкарян, Мусса Мааскри, Том Либ, Каарис, Фредерик Анскомбре

    Описание

    Эндрю и Гаретт Фостеры — братья-авантюристы, промышляющие угоном самых редких и роскошных автомобилей. До сих пор им легко удавалось избегать неприятностей, но во время очередного дела они попадают под прицел жестокого криминального босса. Теперь в обмен на свои жизни они должны украсть для него самый ценный автомобиль его злейшего врага.

    Возраст: 16+ (зрителям, достигшим 16 лет)
    Рейтинг MPAA: PG-13 (детям до 13 лет просмотр нежелателен)
    Дата мировой премьеры: 15 июня 2017
    Дата российской премьеры: 20 июля 2017
    Релиз от: Dalemake
    Продолжительность: 01: 33: 29
    Качество видео: WEB-DLRip
    Перевод: Дублированный (iTunes)
    Субтитры: отсутствуют
    Видео: Xvid, 720x304, ~1838 kbps
    Аудио: AC3, 6 ch, 384 kbps

    Общее
    Полное имя : D: Overdrive.2017.WEB-DLRip.NNM-CLUB.avi
    Формат : AVI
    Формат/Информация : Audio Video Interleave
    Размер файла : 1, 46 Гбайт
    Продолжительность : 1 ч. 33 м.
    Общий поток : 2231 Кбит/сек
    Программа кодирования : VirtualDubMod 1.5.10.3 |www.virtualdub-fr.org|| (build 2550/release)
    Библиотека кодирования : VirtualDubMod build 2550/release
    Видео
    Идентификатор : 0
    Формат : MPEG-4 Visual
    Профиль формата : Advanced Simple@L5
    Параметр BVOP формата : 1
    Параметр QPel формата : Нет
    Параметр GMC формата : Без точки перехода
    Параметр матрицы формата : Выборочная
    Идентификатор кодека : XVID
    Идентификатор кодека/Подсказка : XviD
    Продолжительность : 1 ч. 33 м.
    Битрейт : 1838 Кбит/сек
    Ширина : 720 пикселей
    Высота : 304 пикселя
    Соотношение сторон : 2, 35: 1
    Частота кадров : 23, 976 (23976/1000) кадра/сек
    Цветовое пространство : YUV
    Субдискретизация насыщенности : 4: 2: 0
    Битовая глубина : 8 бит
    Тип развёртки : Прогрессивная
    Метод сжатия : С потерями
    Бит/(Пиксели*Кадры) : 0.350
    Размер потока : 1, 20 Гбайт (82%)
    Библиотека кодирования : XviD 67
    Аудио
    Идентификатор : 1
    Формат : AC-3
    Формат/Информация : Audio Coding 3
    Расширение режима : CM (complete main)
    Параметр Endianness формата : Big
    Идентификатор кодека : 2000
    Продолжительность : 1 ч. 33 м.
    Вид битрейта : Постоянный
    Битрейт : 384 Кбит/сек
    Каналы : 6 каналов
    Расположение каналов : Front: L C R, Side: L R, LFE
    Частота : 48, 0 КГц
    Частота кадров : 31, 250 кадров/сек (1536 spf)
    Метод сжатия : С потерями
    Размер потока : 256 Мбайт (17%)
    Выравнивание : Разделение по промежуткам
    Продолжительность промежутка : 42 мс. (1, 00 видеокадр)
    Время предзагрузки промежутка : 500 мс.

    Скриншоты для ознакомления



    Все одноименные релизы в Клубе
    Время раздачи: 24/7 24/7 до 10 скачавших

    Овердрайв/Overdrive (2017) WEB-DLRip
    загрузка...
    Рейтинг →
     (голосов: 1, оценка 3/5, голосовать можно 1 раз )

    Другие торренты по теме:

  • Овердрайв / Overdrive (2017) TS [H.264 / 720p-LQ] [AD]
  • Овердрайв / Overdrive (2017) WEB-DLRip [H.264 / 1080p-LQ] [Line] [AD]
  • Овердрайв / Overdrive (2017) WEB-DL [H.264 / 1080p-LQ]
  • Овердрайв / Overdrive (2017) WEB-DL [H.264 / 1080p-LQ]
  • Овердрайв / Overdrive (2017) WEB-DL [1080p] ATV
  • Овердрайв / Overdrive (2017) WEB-DLRip [576p] iPad
  • Овердрайв / Overdrive (2017) HDRip
  • Овердрайв / Overdrive (2017) BDRip [H.264 / 720p] [PR]


    • Комментарии (0):

      Информация

      Информация

        Посетители, находящиеся в группе Гости, не могут оставлять комментарии в данной новости.

        ↓ Меню




        ↓ Опрос

        Вы добавили сайт в закладки?
        Да
        Нет


        Top 10 за месяц (Фильмы)