.
Авторизация | Регистрация
Хочешь лучшие торренты? Добавь свой email!
Добавить

Торрент скачать бесплатно

» » Планета обезьян: Война / War for the Planet of the Apes (2017) BDRip [H.265 / 1080p-LQ] торрент скачать бесплатно




    Планета обезьян: Война / War for the Planet of the Apes (2017) BDRip [H.265 / 1080p-LQ] торрент скачать бесплатно

    Опубликовал: Админ | Дата: 17-10-2017, 05:00 | Просмотров: 0

    Производство: США, Chernin Entertainment, River Road Entertainment, TSG Entertainment
    Жанр: Боевик, Триллер, Фантастика
    Режиссер: Мэтт Ривз

    Актеры
    Энди Серкис, Вуди Харрельсон, Стив Зан, Карин Коновал, Амайя Миллер, Терри Нотари, Тай Олссон, Майкл Адамуэйт, Тоби Кеббелл, Гэбриел Чаварриа

    Описание

    Армию генетически модифицированных обезьян ожидает новый вызов: они вынуждены вступить в смертельную схватку с армией людей под руководством безжалостного полковника. После невообразимых потерь среди своих воинов вождь обезьян Цезарь начинает личную борьбу с темными инстинктами и собирается отомстить за весь свой вид. В конце концов он и полковник должны будут сойтись в эпической битве, которая решит, кто теперь будет править на Земле — люди или обезьяны.

    Возраст: 16+ (зрителям, достигшим 16 лет)
    Рейтинг MPAA: R (лицам до 17 лет обязательно присутствие взрослого)
    Дата мировой премьеры: 11 июля 2017
    Дата российской премьеры: 13 июля 2017, Двадцатый Век Фокс СНГ
    Релиз от: HANNIBAL
    Продолжительность: 02: 20: 10
    Качество видео: BDRip
    Перевод: Дублированный (iTunes)
    Субтитры: Русские (на речь обезьян)
    Видео: HEVC/H.265, 1920x800, ~5485 Kbps
    Аудио: AC3, 6 ch, 384 Kbps

    Общее
    Уникальный идентификатор : 187297117035350527662075642545780536520 (0x8CE81CD4A2FD5D3F80902BF5DD1FB4C8)
    Полное имя : G: HEVCWar for the Planet of the Apes (2017) BDRip 1080p HEVC.mkv
    Формат : Matroska
    Версия формата : Version 4/Version 2
    Размер файла : 5, 75 Гбайт
    Продолжительность : 2 ч. 20 м.
    Общий поток : 5870 Кбит/сек
    Название фильма : War.for.the.Planet.of.the.Apes.2017.BDREMUX.1080p.ExKinoRay
    Дата кодирования : UTC 2017-10-16 18: 18: 08
    Программа кодирования : mkvmerge v8.9.0 (\'Father Daughter\') 64bit
    Библиотека кодирования : libebml v1.3.3 + libmatroska v1.4.4
    Обложка : Yes
    Attachments : cover.jpg
    Видео
    Идентификатор : 1
    Формат : HEVC
    Формат/Информация : High Efficiency Video Coding
    Профиль формата : Main@L4@Main
    Идентификатор кодека : V_MPEGH/ISO/HEVC
    Продолжительность : 2 ч. 20 м.
    Битрейт : 5485 Кбит/сек
    Ширина : 1920 пикселей
    Высота : 800 пикселей
    Соотношение сторон : 2, 40: 1
    Режим частоты кадров : Постоянный
    Частота кадров : 23, 976 (24000/1001) кадра/сек
    Цветовое пространство : YUV
    Субдискретизация насыщенности : 4: 2: 0 (Type 1/Type 0)
    Битовая глубина : 8 бит
    Бит/(Пиксели*Кадры) : 0.149
    Размер потока : 5, 37 Гбайт (93%)
    Default : Да
    Forced : Нет
    Цветовой диапазон : Full
    Основные цвета : BT.709
    Характеристики трансфера : BT.709
    Коэффициенты матрицы : BT.709
    Аудио
    Идентификатор : 2
    Формат : AC-3
    Формат/Информация : Audio Coding 3
    Параметр Endianness формата : Big
    Идентификатор кодека : A_AC3
    Продолжительность : 2 ч. 20 м.
    Вид битрейта : Постоянный
    Битрейт : 384 Кбит/сек
    Каналы : 6 каналов
    Расположение каналов : Front: L C R, Side: L R, LFE
    Частота : 48, 0 КГц
    Частота кадров : 31, 250 кадров/сек (1536 SPF)
    Битовая глубина : 16 бит
    Метод сжатия : С потерями
    Размер потока : 385 Мбайт (7%)
    Язык : Russian
    ServiceKind/String : Complete Main
    Default : Да
    Forced : Нет
    Текст
    Идентификатор : 3
    Формат : UTF-8
    Идентификатор кодека : S_TEXT/UTF8
    Идентификатор кодека/Информация : UTF-8 Plain Text
    Продолжительность : 1 ч. 50 м.
    Битрейт : 10 бит/сек
    ElementCount : 219
    Размер потока : 8, 88 Кбайт (0%)
    Default : Да
    Forced : Нет
    Меню
    00: 00: 00.000 : en: 00: 00: 00.000
    00: 05: 05.889 : en: 00: 05: 05.889
    00: 09: 06.713 : en: 00: 09: 06.713
    00: 12: 14.107 : en: 00: 12: 14.108
    00: 18: 21.017 : en: 00: 18: 21.017
    00: 25: 04.503 : en: 00: 25: 04.503
    00: 30: 17.399 : en: 00: 30: 17.399
    00: 34: 13.093 : en: 00: 34: 13.093
    00: 37: 46.347 : en: 00: 37: 46.347
    00: 42: 54.447 : en: 00: 42: 54.447
    00: 49: 31.802 : en: 00: 49: 31.802
    00: 54: 14.626 : en: 00: 54: 14.626
    00: 58: 49.818 : en: 00: 58: 49.818
    01: 05: 24.129 : en: 01: 05: 24.129
    01: 10: 18.381 : en: 01: 10: 18.381
    01: 14: 53.823 : en: 01: 14: 53.823
    01: 18: 59.193 : en: 01: 18: 59.193
    01: 25: 35.671 : en: 01: 25: 35.672
    01: 29: 37.372 : en: 01: 29: 37.372
    01: 34: 22.823 : en: 01: 34: 22.824
    01: 39: 27.712 : en: 01: 39: 27.712
    01: 43: 48.222 : en: 01: 43: 48.222
    01: 48: 45.394 : en: 01: 48: 45.394
    01: 55: 20.580 : en: 01: 55: 20.580
    01: 58: 04.703 : en: 01: 58: 04.703
    02: 02: 33.930 : en: 02: 02: 33.930
    02: 05: 54.797 : en: 02: 05: 54.797
    02: 12: 51.213 : en: 02: 12: 51.213

    Скриншоты для ознакомления



    Все одноименные релизы в Клубе
    Время раздачи: 24/7 (круглосуточно)

    Планета обезьян: Война/War for the Planet of the Apes (2017) BDRip [H.265/1080p-LQ]
    загрузка...
    Рейтинг →
     (голосов: 1, оценка 4/5, голосовать можно 1 раз )

    Другие торренты по теме:

  • Планета обезьян. Куда исчезают умные дети (Планета мавп. Куди зникають розумні діти) (2014) [MP4|1280x720] <HDRip H.264> скачать через торрент бесплатно
  • Планета обезьян: Революция / Dawn of the Planet of the Apes (2014) TS
  • Планета обезьян: Революция / Dawn of the Planet of the Apes (2014) TS
  • Планета обезьян: Революция / Dawn of the Planet of the Apes (2014) TS
  • Планета обезьян: Революция / Dawn of the Planet of the Apes (2014) TS [H.264 / 720p-LQ]
  • Планета обезьян: Революция / Dawn of the Planet of the Apes (2014) WEB-DLRip [звук с TS]
  • Планета обезьян: Революция / Dawn of the Planet of the Apes (2014) WEB-DLRip [H.264] [Line] скачать через торрент бесплатно
  • Планета обезьян: Революция / Dawn of the Planet of the Apes (2014) WEB-DL [H.264 / 720p-LQ] [Line] скачать через торрент бесплатно


    • Комментарии (0):

      Информация

      Информация

        Посетители, находящиеся в группе Гости, не могут оставлять комментарии в данной новости.

        ↓ Меню




        ↓ Опрос

        Вы добавили сайт в закладки?
        Да
        Нет


        Top 10 за месяц (Фильмы)