.
Авторизация | Регистрация
Хочешь лучшие торренты? Добавь свой email!
Добавить

Торрент скачать бесплатно

» » Амнезия / Absentia (2017) HDTV [H.264 / 1080p-LQ] (сезон 1, серии 1-3 из 10) Sony Sci-Fi (обновляемая) торрент скачать бесплатно




    Амнезия / Absentia (2017) HDTV [H.264 / 1080p-LQ] (сезон 1, серии 1-3 из 10) Sony Sci-Fi (обновляемая) торрент скачать бесплатно

    Опубликовал: Админ | Дата: 10-10-2017, 05:00 | Просмотров: 0

    Производство: США, Masha Productions
    Жанр: триллер, драма, криминал, детектив
    Режиссер: Одед Рускин

    Актеры
    Стана Катик, Патрик Хьюсингер, Кара Теоболд, Эмбер Агар, Бруно Бичир, Анхель Бунани, Пол Фримен, Ралф Айнесон, Нил Джексон, Патрик МакОли и др.

    Описание

    Бесследно исчезает агент ФБР Эмили Бирн, которая расследует дело одного из самых известных серийных убийц Бостона. Шесть лет спустя её находят в заброшенном доме. Эмили почти ничего не помнит о времени, проведённом в заточении. Героиня ищет разгадку тайны своего похищения и пытается снова соединиться со своей семьей, у которой теперь новая жизнь.

    Дата мировой премьеры: 2 октября 2017
    Продолжительность: ~00: 43: 00 серия
    Качество видео: HDTV
    Перевод: дублированный -Sony Sci-Fi
    Субтитры: русские (отдельным файлом), английские
    Видео: AVC/H.264, 1920x1080, ~7849 Kbps
    Аудио #1: AC3, 192 kbps, 2 ch, 48 kHz - русский, дублированный
    Аудио #2: AC3, 192 kbps, 2 ch, 48 kHz - английский
    Общее
    Уникальный идентификатор : 186754360745489498759275965008690612098 (0x8C7F94E125831C16820F0FECA72D0782)
    Полное имя : G: Absentia - Амнезия. Сезон 1. Sony Sci-Fi. 1080pAbsentia.s01e01.HDTV.1080p.Rus.Eng.mkv
    Формат : Matroska
    Версия формата : Version 4/Version 2
    Размер файла : 2, 73 Гбайт
    Продолжительность : 47 м. 31 с.
    Общий поток : 8238 Кбит/сек
    Название фильма : Absentia s01e01 @ NNM-Club
    Дата кодирования : UTC 2017-10-09 00: 03: 21
    Программа кодирования : mkvmerge v6.9.1 (\'Blue Panther\') 64bit built on Apr 18 2014 18: 23: 38
    Библиотека кодирования : libebml v1.3.0 + libmatroska v1.4.1
    Видео
    Идентификатор : 1
    Формат : AVC
    Формат/Информация : Advanced Video Codec
    Профиль формата : High@L4.1
    Настройки формата : CABAC/4 Ref Frames
    Параметр CABAC формата : Да
    Параметр RefFrames формата : 4 кадра
    Идентификатор кодека : V_MPEG4/ISO/AVC
    Продолжительность : 47 м. 31 с.
    Битрейт : 7849 Кбит/сек
    Ширина : 1920 пикселей
    Высота : 1080 пикселей
    Соотношение сторон : 16: 9
    Режим частоты кадров : Постоянный
    Частота кадров : 25, 000 кадров/сек
    Цветовое пространство : YUV
    Субдискретизация насыщенности : 4: 2: 0
    Битовая глубина : 8 бит
    Тип развёртки : Прогрессивная
    Бит/(Пиксели*Кадры) : 0.151
    Размер потока : 2, 55 Гбайт (93%)
    Библиотека кодирования : x264 core 152 r2851 ba24899
    Настройки программы : cabac=1/ref=4/deblock=1: -1: -1/analyse=0x3: 0x113/me=umh/subme=8/psy=1/psy_rd=1.00: 0.15/mixed_ref=1/me_range=16/chroma_me=1/trellis=1/8x8dct=1/cqm=0/deadzone=21, 11/fast_pskip=1/chroma_qp_offset=-3/threads=12/lookahead_threads=2/sliced_threads=0/nr=0/decimate=1/interlaced=0/bluray_compat=0/constrained_intra=0/bframes=3/b_pyramid=2/b_adapt=1/b_bias=0/direct=3/weightb=1/open_gop=0/weightp=2/keyint=250/keyint_min=25/scenecut=40/intra_refresh=0/rc_lookahead=50/rc=2pass/mbtree=1/bitrate=7849/ratetol=1.0/qcomp=0.60/qpmin=0/qpmax=69/qpstep=4/cplxblur=20.0/qblur=0.5/vbv_maxrate=62500/vbv_bufsize=78125/nal_hrd=none/filler=0/ip_ratio=1.40/aq=1: 1.00
    Язык : English
    Default : Да
    Forced : Нет
    Аудио #1
    Идентификатор : 2
    Формат : AC-3
    Формат/Информация : Audio Coding 3
    Параметр Endianness формата : Big
    Идентификатор кодека : A_AC3
    Продолжительность : 47 м. 31 с.
    Вид битрейта : Постоянный
    Битрейт : 192 Кбит/сек
    Каналы : 2 канала
    Расположение каналов : Front: L R
    Частота : 48, 0 КГц
    Частота кадров : 31, 250 кадров/сек (1536 SPF)
    Битовая глубина : 16 бит
    Метод сжатия : С потерями
    Размер потока : 65, 3 Мбайт (2%)
    Язык : Russian
    ServiceKind/String : Complete Main
    Default : Да
    Forced : Нет
    Аудио #2
    Идентификатор : 3
    Формат : AC-3
    Формат/Информация : Audio Coding 3
    Параметр Endianness формата : Big
    Идентификатор кодека : A_AC3
    Продолжительность : 47 м. 31 с.
    Вид битрейта : Постоянный
    Битрейт : 192 Кбит/сек
    Каналы : 2 канала
    Расположение каналов : Front: L R
    Частота : 48, 0 КГц
    Частота кадров : 31, 250 кадров/сек (1536 SPF)
    Битовая глубина : 16 бит
    Метод сжатия : С потерями
    Размер потока : 65, 3 Мбайт (2%)
    Язык : English
    ServiceKind/String : Complete Main
    Default : Нет
    Forced : Нет
    Текст
    Идентификатор : 4
    Формат : UTF-8
    Идентификатор кодека : S_TEXT/UTF8
    Идентификатор кодека/Информация : UTF-8 Plain Text
    Язык : English
    Default : Нет
    Forced : Нет


    Онлайн видео Амнезия



    Амнезия/Absentia (2017) HDTV [H.264/1080p-LQ] (сезон 1, серии 1-3 из 10) Sony Sci-Fi (обновляемая)
    загрузка...
    Рейтинг →
     (голосов: 1, оценка 3/5, голосовать можно 1 раз )

    Другие торренты по теме:

  • Амнезия / Absentia (2017) WEBRip [H.264 / 720p-LQ] (серии 1 из 10) Sony Sci-Fi (обновляемая)


    • Комментарии (0):

      Информация

      Информация

        Посетители, находящиеся в группе Гости, не могут оставлять комментарии в данной новости.

        ↓ Меню




        ↓ Опрос

        Вы добавили сайт в закладки?
        Да
        Нет


        Top 10 за месяц (Фильмы)