.
Авторизация | Регистрация
Хочешь лучшие торренты? Добавь свой email!
Добавить

Торрент скачать бесплатно

» » Офис / The Office (2005) WEB-DLRip [H.264 / 720p-LQ] (сезон 2, серии 1-22 из 22) Первый канал, Кравец торрент скачать бесплатно




    Офис / The Office (2005) WEB-DLRip [H.264 / 720p-LQ] (сезон 2, серии 1-22 из 22) Первый канал, Кравец торрент скачать бесплатно

    Опубликовал: Админ | Дата: 10-10-2017, 05:00 | Просмотров: 0

    Производство: США
    Жанр: Комедия
    Режиссер: Пол Фиг, Рэндолл Айнхорн, Кен Куопис

    Актеры
    Стив Карелл, Рэйн Уилсон, Джон Красински, Дженна Фишер, Эд Хелмс, Анджела Кинси, Минди Кейлинг, Б.Дж. Новак, Крэйг Робинсон, Элли Кемпер и др.

    Описание

    Сериал о трудовых буднях небольшого регионального офиса крупной компании, обитатели которого целыми днями должны терпеть закидоны своего непутевого босса.

    Возраст: 16+ (зрителям, достигшим 16 лет)
    Релиз от: Beer kolesik Drinkers
    Продолжительность: ~00: 21: 00 серия
    Качество видео: WEB-DLRip
    Перевод: Дублированный - Первый канал, многоголосый закадровый, профессиональный - Студия Кравец (2х2)
    Субтитры: Отсутствуют
    Видео: AVC/H.264, 1280x720, ~3986 kbps
    Аудио #1: AC3, 2 ch, 192 Kbps — русский, дублированный
    Аудио #2: AC3, 2 ch, 192 Kbps — русский, многоголосый закадровый
    Аудио #3: AC3, 6 ch, 384 Kbps — английский

    Общее
    Уникальный идентификатор : 201174865294904503383647674417128124644 (0x9758DEA5820FEF82A20D5CF47E03B0E4)
    Полное имя : C: The Office.US (s02)The.Office.S02E01.The.Dundies.WEB-DL.720p.h264-BkD.mkv
    Формат : Matroska
    Версия формата : Version 4/Version 2
    Размер файла : 709 Мбайт
    Продолжительность : 20 м. 50 с.
    Общий поток : 4756 Кбит/сек
    Название фильма : by Beer kolesik Drinkers for .org
    Дата кодирования : UTC 2015-01-25 21: 30: 31
    Программа кодирования : mkvmerge v7.5.0 (\'Glass Culture\') 32bit built on Jan 4 2015 16: 37: 25
    Библиотека кодирования : libebml v1.3.1 + libmatroska v1.4.2
    Видео
    Идентификатор : 1
    Формат : AVC
    Формат/Информация : Advanced Video Codec
    Профиль формата : High@L3.1
    Настройки формата : 2 Ref Frames
    Параметр CABAC формата : Нет
    Параметр RefFrames формата : 2 кадра
    Идентификатор кодека : V_MPEG4/ISO/AVC
    Продолжительность : 20 м. 49 с.
    Битрейт : 3986 Кбит/сек
    Ширина : 1280 пикселей
    Высота : 720 пикселей
    Соотношение сторон : 16: 9
    Режим частоты кадров : Постоянный
    Частота кадров : 23, 976 (24000/1001) кадра/сек
    Цветовое пространство : YUV
    Субдискретизация насыщенности : 4: 2: 0
    Битовая глубина : 8 бит
    Тип развёртки : Прогрессивная
    Бит/(Пиксели*Кадры) : 0.180
    Размер потока : 594 Мбайт (84%)
    Язык : English
    Default : Да
    Forced : Нет
    Цветовой диапазон : Limited
    Основные цвета : BT.709
    Характеристики трансфера : BT.709
    Коэффициенты матрицы : BT.709
    Аудио #1
    Идентификатор : 2
    Формат : AC-3
    Формат/Информация : Audio Coding 3
    Параметр Endianness формата : Big
    Идентификатор кодека : A_AC3
    Продолжительность : 20 м. 50 с.
    Вид битрейта : Постоянный
    Битрейт : 192 Кбит/сек
    Каналы : 2 канала
    Расположение каналов : Front: L R
    Частота : 48, 0 КГц
    Частота кадров : 31, 250 кадров/сек (1536 SPF)
    Битовая глубина : 16 бит
    Метод сжатия : С потерями
    Размер потока : 28, 6 Мбайт (4%)
    Заголовок : Первый
    Язык : Russian
    ServiceKind/String : Complete Main
    Default : Да
    Forced : Нет
    Аудио #2
    Идентификатор : 3
    Формат : AC-3
    Формат/Информация : Audio Coding 3
    Параметр Endianness формата : Big
    Идентификатор кодека : A_AC3
    Продолжительность : 20 м. 50 с.
    Вид битрейта : Постоянный
    Битрейт : 192 Кбит/сек
    Каналы : 2 канала
    Расположение каналов : Front: L R
    Частота : 48, 0 КГц
    Частота кадров : 31, 250 кадров/сек (1536 SPF)
    Битовая глубина : 16 бит
    Метод сжатия : С потерями
    Размер потока : 28, 6 Мбайт (4%)
    Заголовок : 2x2
    Язык : Russian
    ServiceKind/String : Complete Main
    Default : Нет
    Forced : Нет
    Аудио #3
    Идентификатор : 4
    Формат : AC-3
    Формат/Информация : Audio Coding 3
    Параметр Endianness формата : Big
    Идентификатор кодека : A_AC3
    Продолжительность : 20 м. 50 с.
    Вид битрейта : Постоянный
    Битрейт : 384 Кбит/сек
    Каналы : 6 каналов
    Расположение каналов : Front: L C R, Side: L R, LFE
    Частота : 48, 0 КГц
    Частота кадров : 31, 250 кадров/сек (1536 SPF)
    Битовая глубина : 16 бит
    Метод сжатия : С потерями
    Размер потока : 57, 2 Мбайт (8%)
    Язык : English
    ServiceKind/String : Complete Main
    Default : Нет
    Forced : Нет


    Онлайн видео Офис



    Офис/The Office (2005) WEB-DLRip [H.264/720p-LQ] (сезон 2, серии 1-22 из 22) Первый канал, Кравец
    загрузка...
    Рейтинг →
     (голосов: 1, оценка 4/5, голосовать можно 1 раз )

    Другие торренты по теме:

  • Офис / The Office (2005) WEB-DLRip [H.264 / 720p-LQ] (сезон 1, серии 1-6 из 6) Первый канал, Кравец


    • Комментарии (0):

      Информация

      Информация

        Посетители, находящиеся в группе Гости, не могут оставлять комментарии в данной новости.

        ↓ Меню




        ↓ Опрос

        Вы добавили сайт в закладки?
        Да
        Нет


        Top 10 за месяц (Фильмы)