.
Авторизация | Регистрация
Хочешь лучшие торренты? Добавь свой email!
Добавить

Торрент скачать бесплатно

» » Подкидыши / Окно жизни (2017) WEB-DL [H.264 / 720p-LQ] (сезон 2, серии 1-24 из 24) торрент скачать бесплатно




    Подкидыши / Окно жизни (2017) WEB-DL [H.264 / 720p-LQ] (сезон 2, серии 1-24 из 24) торрент скачать бесплатно

    Опубликовал: Админ | Дата: 10-10-2017, 05:00 | Просмотров: 0

    Производство: Украина, Film UA
    Жанр: Мелодрама
    Режиссер: Максим Паперник, Владимир Мельниченко

    Актеры
    Екатерина Решетникова, Валерия Шкирандо, Константин Самоуков, Александр Мохов, Наталия Васько, Инна Мирошниченко

    Описание

    Одни готовы отдать любые деньги, чтобы услышать от врача Поздравляю, вы беременны и познать радость материнства. Другие, наоборот, способны добровольно отказаться от маленького счастья и передать новорождённого в руки врачей, не думая о том, что ждёт его в будущем. Кого из малышей ждёт счастливая жизнь в новой семье? Кому не повезёт с приёмными родителями? А кто окажется в детдоме или на грани жизни и смерти? О детях, оставленных в специальном боксе для новорождённых, будут заботиться врачи во главе с заведующей отделением Верой Соколовой.

    Возраст: 16+ (зрителям, достигшим 16 лет)
    Продолжительность: ~ 00: 48: 00 серия
    Качество видео: WEB-DL
    Язык озвучки: русский
    Видео: AVC/H.264, 1280x720 , ~ 3500 Kbps
    Аудио: AC3, 2 ch, 192 Kbps

    General
    Unique ID : 193861980164522780493125519487588184835 (0x91D875929180DAB9792C2228AB293303)
    Complete name : D: СЕРИАЛЫПОДКИДЫШИPodkidychi.2.2017.WEB-DL.(720p).GeneralFilmPodkidychi.2.(01.seriya).WEB-DL.(720p).GeneralFilm.mkv
    Format : Matroska
    Format version : Version 4/Version 2
    File size : 1.21 GiB
    Duration : 47 min 9 s
    Overall bit rate : 3 687 kb/s
    Writing application : Lavf56.25.101
    Writing library : Lavf56.25.101
    Video
    ID : 1
    Format : AVC
    Format/Info : Advanced Video Codec
    Format profile : High@L4.1
    Format settings, CABAC : Yes
    Format settings, RefFrames : 5 frames
    Codec ID : V_MPEG4/ISO/AVC
    Duration : 47 min 9 s
    Bit rate : 3 500 kb/s
    Width : 1 280 pixels
    Height : 720 pixels
    Display aspect ratio : 16: 9
    Frame rate mode : Constant
    Frame rate : 25.000 FPS
    Color space : YUV
    Chroma subsampling : 4: 2: 0
    Bit depth : 8 bits
    Scan type : Progressive
    Bits/(Pixel*Frame) : 0.152
    Stream size : 1.13 GiB (93%)
    Writing library : x264 core 148
    Encoding settings : cabac=1/ref=5/deblock=1: 0: 0/analyse=0x3: 0x113/me=hex/subme=8/psy=1/psy_rd=1.00: 0.00/mixed_ref=1/me_range=16/chroma_me=1/trellis=2/8x8dct=1/cqm=0/deadzone=21, 11/fast_pskip=1/chroma_qp_offset=-2/threads=1/lookahead_threads=1/sliced_threads=0/nr=0/decimate=1/interlaced=0/bluray_compat=0/constrained_intra=0/bframes=3/b_pyramid=2/b_adapt=1/b_bias=0/direct=3/weightb=1/open_gop=0/weightp=2/keyint=250/keyint_min=25/scenecut=0/intra_refresh=0/rc_lookahead=50/rc=abr/mbtree=1/bitrate=3500/ratetol=1.0/qcomp=0.60/qpmin=0/qpmax=69/qpstep=4/ip_ratio=1.40/aq=1: 1.00
    Default : Yes
    Forced : No
    Audio
    ID : 2
    Format : AC-3
    Format/Info : Audio Coding 3
    Format settings, Endianness : Big
    Codec ID : A_AC3
    Duration : 47 min 9 s
    Bit rate mode : Constant
    Bit rate : 192 kb/s
    Channel(s) : 2 channels
    Channel positions : Front: L R
    Sampling rate : 44.1 kHz
    Frame rate : 28.711 FPS (1536 SPF)
    Bit depth : 16 bits
    Compression mode : Lossy
    Delay relative to video : -80 ms
    Stream size : 64.8 MiB (5%)
    Service kind : Complete Main
    Default : Yes
    Forced : No

    Скриншоты для ознакомления



    Все одноименные релизы в Клубе
    Время раздачи: 24/7 (до появления первых 3-5 скачавших)

    Онлайн видео Подкидыши



    Подкидыши/Окно жизни (2017) WEB-DL [H.264/720p-LQ] (сезон 2, серии 1-24 из 24)
    загрузка...
    Рейтинг →
     (голосов: 1, оценка 5/5, голосовать можно 1 раз )

    Другие торренты по теме:

  • Подкидыши / Окно жизни (2016) WEB-DLRip (сезон 1, серии 1-16 из 24) (обновляемая)
  • Подкидыши / Окно жизни (2016) SATRip (сезон 1, серии 1-24 из 24)
  • Подкидыши / Окно жизни (2017) WEBRip (сезон 2, серии 1-24 из 24)
  • Подкидыши / Окно жизни (2017) WEB-DLRip [H.264] (сезон 2, серии 1-24 из 24)


    • Комментарии (0):

      Информация

      Информация

        Посетители, находящиеся в группе Гости, не могут оставлять комментарии в данной новости.

        ↓ Меню




        ↓ Опрос

        Вы добавили сайт в закладки?
        Да
        Нет


        Top 10 за месяц (Фильмы)