.
Авторизация | Регистрация
Хочешь лучшие торренты? Добавь свой email!
Добавить

Торрент скачать бесплатно

» » Сверхлюди / Нелюди / Inhumans (2017) WEB-DLRip (сезон 1, серии 1-3 из 8) NevaFilm, LostFilm (обновляемая) торрент скачать бесплатно




    Сверхлюди / Нелюди / Inhumans (2017) WEB-DLRip (сезон 1, серии 1-3 из 8) NevaFilm, LostFilm (обновляемая) торрент скачать бесплатно

    Опубликовал: Админ | Дата: 10-10-2017, 05:00 | Просмотров: 0

    Производство: США, Marvel Television, Walt Disney Television
    Жанр: фантастика, боевик, приключения
    Режиссер: Роэль Рейн, Крис Фишер, Билл Джирхарт

    Актеры
    Соня Балморес, Изабель Корниш, Эме Иквуакор, Кен Люн, Майк Мо, Энсон Маунт, Иван Реон, Серинда Свон, Эллен Воглом, Генри Иэн Кьюсик

    Описание

    История Королевской семьи, принадлежащей к расе Сверхлюдей. Вследствие военного переворота члены королевской фамилии под предводительством Чёрного Грома вынуждены покинуть свой дом в лунном городе Аттилан и бежать на острова, как в дальнейшем оказывается — Гавайи, где им предстоит спасать не только себя, но и весь мир от гибели.

    Дата мировой премьеры: 31 августа 2017
    Дата премьеры в России: 31 августа 2017, IMAX, Централ Партнершип

    Релиз от: CasStudio
    Продолжительность: ~00: 42: 00 серия
    Качество видео: WEB-DLRip
    Перевод: Дублированный -NevaFilm
    Многоголосый закадровый, профессиональный -LostFilm
    Субтитры: Английские (отдельным файлом)
    Реклама: отсутствует
    Видео: XviD, 720x400 (16: 9), ~ 2000 Kbps
    Аудио # 1: AC3, 2 ch, 192 kbps - русский, дублированный
    Аудио # 2: AC3, 6 ch, 384 kbps - русский, многоголосый закадровый
    Аудио # 3: AC3, 6 ch, 384 kbps - английский

    Общее
    Полное имя : E: _Сериалы_СериалыСверхлюдиInhumans.S01.WEB-DLRip.Rus.Eng.CasstudioInhumans.S01E01.WEB-DLRip.Rus.Eng.Casstudio.avi
    Формат : AVI
    Формат/Информация : Audio Video Interleave
    Размер файла : 907 Мбайт
    Продолжительность : 42 м. 29 с.
    Общий поток : 2983 Кбит/сек
    Программа кодирования : VirtualDubMod 1.5.10.3 |www.virtualdub-fr.org|| (build 2550/release)
    Библиотека кодирования : VirtualDubMod build 2550/release
    Видео
    Идентификатор : 0
    Формат : MPEG-4 Visual
    Профиль формата : Advanced Simple@L5
    Настройки формата : BVOP2
    Параметр BVOP формата : 2
    Параметр QPel формата : Нет
    Параметр GMC формата : Без точки перехода
    Параметр матрицы формата : Default (MPEG)
    Идентификатор кодека : XVID
    Идентификатор кодека/Подсказка : XviD
    Продолжительность : 42 м. 29 с.
    Битрейт : 2005 Кбит/сек
    Ширина : 720 пикселей
    Высота : 400 пикселей
    Соотношение сторон : 16: 9
    Частота кадров : 23, 976 (24000/1001) кадра/сек
    Цветовое пространство : YUV
    Субдискретизация насыщенности : 4: 2: 0
    Битовая глубина : 8 бит
    Тип развёртки : Прогрессивная
    Метод сжатия : С потерями
    Бит/(Пиксели*Кадры) : 0.290
    Размер потока : 609 Мбайт (67%)
    Библиотека кодирования : XviD 1.2.1 (UTC 2008-12-04)
    Аудио #1
    Идентификатор : 1
    Формат : AC-3
    Формат/Информация : Audio Coding 3
    Параметр Endianness формата : Big
    Идентификатор кодека : 2000
    Продолжительность : 42 м. 29 с.
    Вид битрейта : Постоянный
    Битрейт : 192 Кбит/сек
    Каналы : 2 канала
    Расположение каналов : Front: L R
    Частота : 48, 0 КГц
    Частота кадров : 31, 250 кадров/сек (1536 SPF)
    Битовая глубина : 16 бит
    Метод сжатия : С потерями
    Размер потока : 58, 3 Мбайт (6%)
    Выравнивание : Разделение по промежуткам
    Продолжительность промежутка : 42 мс. (1, 00 видеокадр)
    Время предзагрузки промежутка : 500 мс.
    ServiceKind/String : Complete Main
    Аудио #2
    Идентификатор : 2
    Формат : AC-3
    Формат/Информация : Audio Coding 3
    Параметр Endianness формата : Big
    Идентификатор кодека : 2000
    Продолжительность : 42 м. 29 с.
    Вид битрейта : Постоянный
    Битрейт : 384 Кбит/сек
    Каналы : 6 каналов
    Расположение каналов : Front: L C R, Side: L R, LFE
    Частота : 48, 0 КГц
    Частота кадров : 31, 250 кадров/сек (1536 SPF)
    Битовая глубина : 16 бит
    Метод сжатия : С потерями
    Размер потока : 117 Мбайт (13%)
    Выравнивание : Разделение по промежуткам
    Продолжительность промежутка : 42 мс. (1, 00 видеокадр)
    Время предзагрузки промежутка : 500 мс.
    ServiceKind/String : Complete Main
    Аудио #3
    Идентификатор : 3
    Формат : AC-3
    Формат/Информация : Audio Coding 3
    Параметр Endianness формата : Big
    Идентификатор кодека : 2000
    Продолжительность : 42 м. 29 с.
    Вид битрейта : Постоянный
    Битрейт : 384 Кбит/сек
    Каналы : 6 каналов
    Расположение каналов : Front: L C R, Side: L R, LFE
    Частота : 48, 0 КГц
    Частота кадров : 31, 250 кадров/сек (1536 SPF)
    Битовая глубина : 16 бит
    Метод сжатия : С потерями
    Размер потока : 117 Мбайт (13%)
    Выравнивание : Разделение по промежуткам
    Продолжительность промежутка : 42 мс. (1, 00 видеокадр)
    Время предзагрузки промежутка : 500 мс.
    ServiceKind/String : Complete Main


    Онлайн видео Сверхлюди



    Сверхлюди/Нелюди/Inhumans (2017) WEB-DLRip (сезон 1, серии 1-3 из 8) NevaFilm, LostFilm (обновляемая)
    загрузка...
    Рейтинг →
     (голосов: 1, оценка 3/5, голосовать можно 1 раз )

    Другие торренты по теме:

  • Сверхлюди / Нелюди / Inhumans (2017) WEB-DL [H.264 / 720р-LQ] (сезон 1, серии 1-2 из 8) NewStudio (обновляемая)
  • Сверхлюди / Нелюди / Inhumans (2017) WEB-DL [H.264 / 1080p-LQ] (сезон 1, серии 1-2 из 8) NevaFilm, LostFilm (обновляемая)
  • Сверхлюди / Нелюди / Inhumans (2017) WEB-DL [H.264 / 720р-LQ] (сезон 1, серии 1-3 из 8) Невафильм (обновляемая)


    • Комментарии (0):

      Информация

      Информация

        Посетители, находящиеся в группе Гости, не могут оставлять комментарии в данной новости.

        ↓ Меню




        ↓ Опрос

        Вы добавили сайт в закладки?
        Да
        Нет


        Top 10 за месяц (Фильмы)