.
Авторизация | Регистрация
Хочешь лучшие торренты? Добавь свой email!
Добавить

Торрент скачать бесплатно

» » Подкидыши / Окно жизни (2017) WEB-DLRip [H.264] (сезон 2, серии 1-24 из 24) торрент скачать бесплатно




    Подкидыши / Окно жизни (2017) WEB-DLRip [H.264] (сезон 2, серии 1-24 из 24) торрент скачать бесплатно

    Опубликовал: Админ | Дата: 10-10-2017, 05:00 | Просмотров: 0

    Производство: Россия, Украина, Film UA
    Жанр: Мелодрама
    Режиссер: Максим Паперник, Владимир Мельниченко

    Актеры
    Екатерина Решетникова, Валерия Шкирандо, Константин Самоуков, Александр Мохов, Наталия Васько, Инна Мирошниченко

    Описание

    Одни готовы отдать любые деньги, чтобы услышать от врача Поздравляю, вы беременны и познать радость материнства. Другие, наоборот, способны добровольно отказаться от маленького счастья и передать новорождённого в руки врачей, не думая о том, что ждёт его в будущем. Кого из малышей ждёт счастливая жизнь в новой семье? Кому не повезёт с приёмными родителями? А кто окажется в детдоме или на грани жизни и смерти? О детях, оставленных в специальном боксе для новорождённых, будут заботиться врачи во главе с заведующей отделением Верой Соколовой.

    Возраст: 16+ (зрителям, достигшим 16 лет)
    Продолжительность: ~ 00: 48: 00 серия
    Качество видео: WEB-DLRip
    Язык озвучки: русский
    Видео: AVC/H.264, 1024x576, ~ 1600 Kbps
    Аудио: AC3, 2 ch, 192 Kbps

    General
    Unique ID : 190033992021041827660491471232314566058 (0x8EF7372F7EE68D79890D80CCE91EE5AA)
    Complete name : D: СЕРИАЛЫПОДКИДЫШИPodkidychi.2.2017.WEB-DLRip.(AVC).Files-x1.Podkidychi.2.(2017).WEB-DLRip.(AVC).by.Серый1779.Files-x.mkv
    Format : Matroska
    Format version : Version 2
    File size : 605 MiB
    Duration : 47 min 9 s
    Overall bit rate : 1 793 kb/s
    Encoded date : UTC 2017-09-12 03: 58: 01
    Writing application : mkvmerge v6.1.0 (\'Old Devil\') built on Mar 4 2013 09: 10: 42
    Writing library : libebml v1.3.0 + libmatroska v1.4.0
    Video
    ID : 1
    Format : AVC
    Format/Info : Advanced Video Codec
    Format profile : High@L4.1
    Format settings, CABAC : Yes
    Format settings, RefFrames : 9 frames
    Codec ID : V_MPEG4/ISO/AVC
    Duration : 47 min 9 s
    Bit rate : 1 600 kb/s
    Width : 1 024 pixels
    Height : 576 pixels
    Display aspect ratio : 16: 9
    Frame rate mode : Constant
    Frame rate : 25.000 FPS
    Color space : YUV
    Chroma subsampling : 4: 2: 0
    Bit depth : 8 bits
    Scan type : Progressive
    Bits/(Pixel*Frame) : 0.109
    Stream size : 528 MiB (87%)
    Writing library : x264 core 130 r2273 b3065e6
    Encoding settings : cabac=1/ref=9/deblock=1: -2: -1/analyse=0x3: 0x133/me=umh/subme=9/psy=1/psy_rd=1.00: 0.15/mixed_ref=1/me_range=32/chroma_me=1/trellis=2/8x8dct=1/cqm=0/deadzone=21, 11/fast_pskip=0/chroma_qp_offset=-3/threads=3/lookahead_threads=1/sliced_threads=0/nr=0/decimate=1/interlaced=0/bluray_compat=0/constrained_intra=0/bframes=9/b_pyramid=2/b_adapt=2/b_bias=0/direct=1/weightb=1/open_gop=0/weightp=2/keyint=250/keyint_min=25/scenecut=40/intra_refresh=0/rc=2pass/mbtree=0/bitrate=1600/ratetol=1.0/qcomp=0.60/qpmin=0/qpmax=69/qpstep=4/cplxblur=20.0/qblur=0.5/ip_ratio=1.40/pb_ratio=1.30/aq=2: 1.00
    Default : Yes
    Forced : No
    Color range : Limited
    Color primaries : BT.709
    Transfer characteristics : BT.709
    Matrix coefficients : BT.709
    Audio
    ID : 2
    Format : AC-3
    Format/Info : Audio Coding 3
    Format settings, Endianness : Big
    Codec ID : A_AC3
    Duration : 47 min 9 s
    Bit rate mode : Constant
    Bit rate : 192 kb/s
    Channel(s) : 2 channels
    Channel positions : Front: L R
    Sampling rate : 44.1 kHz
    Frame rate : 28.711 FPS (1536 SPF)
    Bit depth : 16 bits
    Compression mode : Lossy
    Stream size : 64.8 MiB (11%)
    Service kind : Complete Main
    Default : Yes
    Forced : No

    Скриншоты для ознакомления



    Все одноименные релизы в Клубе
    Время раздачи: 24/7 (до появления первых 3-5 скачавших)

    Онлайн видео Подкидыши



    Подкидыши/Окно жизни (2017) WEB-DLRip [H.264] (сезон 2, серии 1-24 из 24)
    загрузка...
    Рейтинг →
     (голосов: 1, оценка 4/5, голосовать можно 1 раз )

    Другие торренты по теме:

  • Подкидыши / Окно жизни (2016) WEB-DLRip (сезон 1, серии 1-16 из 24) (обновляемая)
  • Подкидыши / Окно жизни (2016) SATRip (сезон 1, серии 1-24 из 24)
  • Подкидыши / Окно жизни (2017) WEBRip (сезон 2, серии 1-24 из 24)
  • Подкидыши / Окно жизни (2017) WEB-DL [H.264 / 720p-LQ] (сезон 2, серии 1-24 из 24)


    • Комментарии (0):

      Информация

      Информация

        Посетители, находящиеся в группе Гости, не могут оставлять комментарии в данной новости.

        ↓ Меню




        ↓ Опрос

        Вы добавили сайт в закладки?
        Да
        Нет


        Top 10 за месяц (Фильмы)