.
Авторизация | Регистрация
Хочешь лучшие торренты? Добавь свой email!
Добавить

Торрент скачать бесплатно

» » Ивановы-Ивановы (2017) WEB-DLRip (сезон 1, серии 1-5 из 20) (обновляемая) торрент скачать бесплатно




    Ивановы-Ивановы (2017) WEB-DLRip (сезон 1, серии 1-5 из 20) (обновляемая) торрент скачать бесплатно

    Опубликовал: Админ | Дата: 10-10-2017, 05:00 | Просмотров: 0

    Телекомпания: СТС
    Жанр: Комедия
    Режиссер: Антон Федотов

    Актеры
    Семён Трескунов, Сергей Бурунов, Михаил Трухин, Александра Флоринская, Анна Уколова, Юрий Ицков, Алексей Лукин

    Описание

    Герои — две российские семьи Ивановых. Они не знакомы друг с другом, у них разный достаток и круг интересов. Одни — бедны и провинциальны, вторые — более чем обеспеченны и высокомерны. Они были бы счастливы прожить жизнь, ничего не зная друг о друге, но в один прекрасный день выясняется, что много лет назад наследников этих семей перепутали в роддоме, и все эти годы сын бедняков обитал в шикарном особняке, а отпрыск богатых Ивановых ютился в малогабаритной квартире. Конечно, теперь все хотят получить обратно своих кровных наследников.

    Дата премьеры в РФ: 16 октября 2017
    Продолжительность: ~ 00: 25: 00 серия
    Качество видео: WEB-DLRip
    Видео: MPEG4, XviD, 720x400 (16: 9), 25.000 fps, 1 650 Kbps (0.229 bit/pixel)
    Аудио: AC-3, 48.0 KHz, 2 ch, 192 Kbps, CBR
    Код: выделить все
    Общее
    Полное имя : D:[1]Ивановы-ИвановыИвановы-Ивановы (2017)_WEB-DLRipИвановы-Ивановы. Серия 01 (2017).avi
    Формат : AVI
    Формат/Информация : Audio Video Interleave
    Размер файла : 327 Мбайт
    Продолжительность : 24 м.
    Общий поток : 1852 Кбит/сек
    Программа кодирования : VirtualDubMod 1.5.10.3 (build 2550/release)
    Библиотека кодирования : VirtualDubMod build 2550/release
    Видео
    Идентификатор : 0
    Формат : MPEG-4 Visual
    Профиль формата : Advanced Simple@L5
    Параметр BVOP формата : 2
    Параметр QPel формата : Нет
    Параметр GMC формата : Без точки перехода
    Параметр матрицы формата : Default (MPEG)
    Режим смешивания : Сжатый битовый поток
    Идентификатор кодека : XVID
    Идентификатор кодека/Подсказка : XviD
    Продолжительность : 24 м.
    Битрейт : 1650 Кбит/сек
    Ширина : 720 пикселей
    Высота : 400 пикселей
    Соотношение сторон : 16:9
    Частота кадров : 25, 000 кадров/сек
    Цветовое пространство : YUV
    Субдискретизация насыщенности : 4:2:0
    Битовая глубина : 8 бит
    Тип развёртки : Прогрессивная
    Метод сжатия : С потерями
    Бит/(Пиксели*Кадры) : 0.229
    Размер потока : 291 Мбайт (89%)
    Библиотека кодирования : XviD 1.2.1 (UTC 2008-12-04)
    Аудио
    Идентификатор : 1
    Формат : AC-3
    Формат/Информация : Audio Coding 3
    Расширение режима : CM (complete main)
    Параметр Endianness формата : Big
    Идентификатор кодека : 2000
    Продолжительность : 24 м.
    Вид битрейта : Постоянный
    Битрейт : 192 Кбит/сек
    Каналы : 2 канала
    Расположение каналов : Front: L R
    Частота : 48, 0 КГц
    Битовая глубина : 16 бит
    Метод сжатия : С потерями
    Размер потока : 33, 9 Мбайт (10%)
    Выравнивание : Разделение по промежуткам
    Продолжительность промежутка : 40 мс. (1, 00 видеокадр)
    Время предзагрузки промежутка : 500 мс.


    Онлайн видео Ивановы



    Ивановы-Ивановы (2017) WEB-DLRip (сезон 1, серии 1-5 из 20) (обновляемая)
    загрузка...
    Рейтинг →
     (голосов: 1, оценка 4/5, голосовать можно 1 раз )

    Другие торренты по теме:

  • Ивановы (2016) WEB-DLRip [H.264] (2 серии из 2)
  • Ивановы в эфире (2016) WEB-DLRip [H.264] (выпуски 0-7) [MP4|1280x720]


    • Комментарии (0):

      Информация

      Информация

        Посетители, находящиеся в группе Гости, не могут оставлять комментарии в данной новости.

        ↓ Меню




        ↓ Опрос

        Вы добавили сайт в закладки?
        Да
        Нет


        Top 10 за месяц (Фильмы)