.
Авторизация | Регистрация
Хочешь лучшие торренты? Добавь свой email!
Добавить

Торрент скачать бесплатно

» » Ивановы-Ивановы (2017) WEB-DL [H.264 / 720p-LQ] (сезон 1, серии 1-5 из 20) (обновляемая) торрент скачать бесплатно




    Ивановы-Ивановы (2017) WEB-DL [H.264 / 720p-LQ] (сезон 1, серии 1-5 из 20) (обновляемая) торрент скачать бесплатно

    Опубликовал: Админ | Дата: 10-10-2017, 05:00 | Просмотров: 4

    Производство: Россия, Yellow, Black and White
    Жанр: Комедия
    Режиссер: Антон Федотов

    Актеры
    Семён Трескунов, Сергей Бурунов, Михаил Трухин, Александра Флоринская, Анна Уколова, Юрий Ицков, Алексей Лукин

    Описание

    Герои — две российские семьи Ивановых. Они не знакомы друг с другом, у них разный достаток и круг интересов. Одни — бедны и провинциальны, вторые — более чем обеспеченны и высокомерны. Они были бы счастливы прожить жизнь, ничего не зная друг о друге, но в один прекрасный день выясняется, что много лет назад наследников этих семей перепутали в роддоме, и все эти годы сын бедняков обитал в шикарном особняке, а отпрыск богатых Ивановых ютился в малогабаритной квартире. Конечно, теперь все хотят получить обратно своих кровных наследников.

    Дата российской премьеры: 16 октября 2017
    Продолжительность: ~ 00: 25: 00 серия
    Качество видео: WEB-DL
    Видео: AVC/H.264, 1280x720, ~3500 Kbps
    Аудио: AC3, 2 ch, 192 Kbps

    General
    Unique ID : 95002855399354445698804342762625978591 (0x4778E2682484B9183677662B80C250DF)
    Complete name : D: СЕРИАЛЫИВАНОВЫ-ИВАНОВЫIvanovy-Ivanovy.2017.WEB-DL.720.Files-x1.Ivanovy-Ivanovy.2017.WEB-DL.720.Files-x.mkv
    Format : Matroska
    Format version : Version 4/Version 2
    File size : 560 MiB
    Duration : 24 min 39 s
    Overall bit rate : 3 173 kb/s
    Writing application : Lavf56.25.101
    Writing library : Lavf56.25.101
    Video
    ID : 1
    Format : AVC
    Format/Info : Advanced Video Codec
    Format profile : High@L3.1
    Format settings, CABAC : Yes
    Format settings, RefFrames : 4 frames
    Codec ID : V_MPEG4/ISO/AVC
    Duration : 24 min 39 s
    Bit rate : 2 918 kb/s
    Width : 1 280 pixels
    Height : 720 pixels
    Display aspect ratio : 16: 9
    Frame rate mode : Constant
    Frame rate : 25.000 FPS
    Color space : YUV
    Chroma subsampling : 4: 2: 0
    Bit depth : 8 bits
    Scan type : Progressive
    Bits/(Pixel*Frame) : 0.127
    Stream size : 515 MiB (92%)
    Default : Yes
    Forced : No
    Audio
    ID : 2
    Format : AC-3
    Format/Info : Audio Coding 3
    Format settings, Endianness : Big
    Codec ID : A_AC3
    Duration : 24 min 39 s
    Bit rate mode : Constant
    Bit rate : 192 kb/s
    Channel(s) : 2 channels
    Channel positions : Front: L R
    Sampling rate : 48.0 kHz
    Frame rate : 31.250 FPS (1536 SPF)
    Bit depth : 16 bits
    Compression mode : Lossy
    Delay relative to video : -160 ms
    Stream size : 33.9 MiB (6%)
    Service kind : Complete Main
    Default : Yes
    Forced : No


    Онлайн видео Ивановы-Ивановы (2017) WEB-DL [H.264



    Ивановы-Ивановы (2017) WEB-DL [H.264/720p-LQ] (сезон 1, серии 1-5 из 20) (обновляемая)
    загрузка...
    Рейтинг →
     (голосов: 1, оценка 3/5, голосовать можно 1 раз )

    Другие торренты по теме:

  • Ивановы (2016) WEB-DL [H.264 / 720p-LQ]
  • Ивановы-Ивановы (2017) WEB-DL [H.264 / 1080p-LQ] (сезон 1, серия 1-5 из 20) (обновляемая)


    • Комментарии (0):

      Информация

      Информация

        Посетители, находящиеся в группе Гости, не могут оставлять комментарии в данной новости.

        ↓ Меню




        ↓ Опрос

        Вы добавили сайт в закладки?
        Да
        Нет


        Top 10 за месяц (Фильмы)