.
Авторизация | Регистрация
Хочешь лучшие торренты? Добавь свой email!
Добавить

Торрент скачать бесплатно

» » Паук (2017) WEB-DLRip (сезон 1, серии 1-4 из ) (обновляемая) торрент скачать бесплатно




    Паук (2017) WEB-DLRip (сезон 1, серии 1-4 из ) (обновляемая) торрент скачать бесплатно

    Опубликовал: Админ | Дата: 10-10-2017, 05:00 | Просмотров: 0

    Производство: Россия, Промоушн Фильм
    Жанр: детектив
    Режиссер: Наталия Микрюкова, Константин Фролов, Михаил Жерневский

    Актеры
    Валерий Панков, Нелла Стрекаловская, Алексей Вакулов, Владимир Колосов, Майя Вознесенская, Александр Борисов, Валентина Ляпина, Александр Левин, Наталия Колоскова, Валентина Муравская и др.

    Описание

    Глеб живёт стерильной жизнью в герметичном мире. Он дышит воздухом без микробов и допускает только дистиллированные отношения — без эмпатии, привязанности и прочей грязи. Он смотрит на мир через окно — окно браузера. Впрочем, это его работа: Глеб — гениальный хакер, который борется с преступностью. Его ник — Паук. Он раскрывает самые сложные дела — те, за которые полиция даже не возьмется из-за давления, профнепригодности, коррупции или просто лени. Паук может взломать или подобрать пароль к чему угодно. Кроме собственной жизни.

    Продолжительность: ~00: 48: 00 серия
    Качество видео: WEB-DLRip
    Видео: XviD, 720x400, ~1800 Kbps
    Аудио: MP3, 128 Kbps. 2 ch
    Общее
    Полное имя : G: Паук (2017). Сезон 1. WEB-DLRip1 серия.avi
    Формат : AVI
    Формат/Информация : Audio Video Interleave
    Размер файла : 672 Мбайт
    Продолжительность : 48 м. 29 с.
    Общий поток : 1937 Кбит/сек
    Программа кодирования : VirtualDubMod 1.5.10.3 |www.virtualdub-fr.org|| (build 2550/release)
    Библиотека кодирования : VirtualDubMod build 2550/release
    Видео
    Идентификатор : 0
    Формат : MPEG-4 Visual
    Профиль формата : Advanced Simple@L5
    Настройки формата : BVOP2
    Параметр BVOP формата : 2
    Параметр QPel формата : Нет
    Параметр GMC формата : Без точки перехода
    Параметр матрицы формата : Default (H.263)
    Идентификатор кодека : XVID
    Идентификатор кодека/Подсказка : XviD
    Продолжительность : 48 м. 29 с.
    Битрейт : 1800 Кбит/сек
    Ширина : 720 пикселей
    Высота : 400 пикселей
    Соотношение сторон : 16: 9
    Частота кадров : 25, 000 кадров/сек
    Цветовое пространство : YUV
    Субдискретизация насыщенности : 4: 2: 0
    Битовая глубина : 8 бит
    Тип развёртки : Прогрессивная
    Метод сжатия : С потерями
    Бит/(Пиксели*Кадры) : 0.250
    Размер потока : 624 Мбайт (93%)
    Библиотека кодирования : XviD 1.2.1 (UTC 2008-12-04)
    Аудио
    Идентификатор : 1
    Формат : MPEG Audio
    Версия формата : Version 1
    Профиль формата : Layer 3
    Настройки формата : Joint stereo
    Режим : Joint stereo
    Идентификатор кодека : 55
    Идентификатор кодека/Подсказка : MP3
    Продолжительность : 48 м. 29 с.
    Вид битрейта : Постоянный
    Битрейт : 128 Кбит/сек
    Каналы : 2 канала
    Частота : 48, 0 КГц
    Метод сжатия : С потерями
    Размер потока : 44, 4 Мбайт (7%)
    Выравнивание : Соединение по промежуткам
    Продолжительность промежутка : 40 мс. (1, 00 видеокадр)
    Время предзагрузки промежутка : 504 мс.
    Библиотека кодирования : LAME3.99r
    Настройки программы : -m j -V 4 -q 9 -lowpass 17 -b 128


    Онлайн видео Паук (2017) WEB



    Паук (2017) WEB-DLRip (сезон 1, серии 1-4 из ) (обновляемая)
    загрузка...
    Рейтинг →
     (голосов: 1, оценка 5/5, голосовать можно 1 раз )

    Другие торренты по теме:

  • Человек-паук: Возвращение домой / Spider-Man: Homecoming (2017) WEB-DLRip
  • Человек-паук: Возвращение домой / Spider-Man: Homecoming (2017) WEB-DLRip
  • Человек-паук: Возвращение домой / Spider-Man: Homecoming (2017) WEB-DLRip
  • Паук (2015) WEB-DLRip [H.264 / 720p-LQ] (серии 1- из 8) (обновляемая) скачать через торрент бесплатно
  • Паук (2015) WEB-DLRip [H.264 / 1080p-LQ] (серии 1- из 8) (обновляемая) скачать через торрент бесплатно
  • Паук (2015) WEB-DLRip (серии 1-8 из 8) скачать через торрент бесплатно
  • Человек-паук: Возвращение домой / Spider-Man: Homecoming (2017) WEB-DLRip [H.264 / 720p-LQ] [AD]
  • Человек-паук: Возвращение домой / Spider-Man: Homecoming (2017) WEB-DLRip [H.264 / 1080p-LQ] [Line] [AD]


    • Комментарии (0):

      Информация

      Информация

        Посетители, находящиеся в группе Гости, не могут оставлять комментарии в данной новости.

        ↓ Меню




        ↓ Опрос

        Вы добавили сайт в закладки?
        Да
        Нет


        Top 10 за месяц (Фильмы)