.
Авторизация | Регистрация
Хочешь лучшие торренты? Добавь свой email!
Добавить

Торрент скачать бесплатно

» » Физрук (2017) WEB-DLRip (сезон 4, серии 1-2 из 20) (обновляемая) торрент скачать бесплатно




    Физрук (2017) WEB-DLRip (сезон 4, серии 1-2 из 20) (обновляемая) торрент скачать бесплатно

    Опубликовал: Админ | Дата: 10-10-2017, 05:00 | Просмотров: 0

    Производство: Россия
    Жанр: комедия
    Режиссер: Сергей Сенцов, Фёдор Стуков, Дмитрий Губарев

    Актеры
    Дмитрий Нагиев, Александр Гордон, Полина Гренц, Анастасия Панина, Владимир Сычёв, Данила Вахрушев, Андрей Крыжний, Артур Сопельник, Оксана Сидоренко, Карина Мишулина, Роман Индык, Елена Муравьёва и др.

    Описание

    Это история о столкновении двух времен: лихих 90-х и стабильных десятых. Главный герой Фома всю жизнь был правой рукой влиятельного человека с полукриминальным прошлым. Когда хозяин выгнал его на пенсию, Фома решил любым способом вернуться обратно. Сначала казалось, что все будет просто: подобраться к ребенку бывшего босса, прогнуться, напомнить о себе и вернуться в дело. Но план Фомы рушится в первый же день. В школе ему приходится задержаться надолго. Попав в абсолютно незнакомый мир детей и учителей, который кардинально отличается от привычного ему круга, Фома не только меняет свою жизнь, но и меняется сам.

    Возраст: 16+ (зрителям, достигшим 16 лет)
    Дата российской премьеры: 9 октября 2017
    Продолжительность: ~00: 24: 00 серия
    Качество видео: WEB-DLRip
    Видео: XviD, 720x400 (16: 9), ~1525 Kbps
    Аудио: AC3, 2 ch, 192 Kbps

    Общее
    Полное имя : D: Физрук 2017Серия 01.avi
    Формат : AVI
    Формат/Информация : Audio Video Interleave
    Размер файла : 300 Мбайт
    Продолжительность : 24 м. 18 с.
    Общий поток : 1726 Кбит/сек
    Программа кодирования : VirtualDubMod 1.5.10.2 (build 2540/release)
    Библиотека кодирования : VirtualDubMod build 2540/release
    Видео
    Идентификатор : 0
    Формат : MPEG-4 Visual
    Профиль формата : Advanced Simple@L5
    Настройки формата : BVOP2
    Параметр BVOP формата : 2
    Параметр QPel формата : Нет
    Параметр GMC формата : Без точки перехода
    Параметр матрицы формата : Default (MPEG)
    Идентификатор кодека : XVID
    Идентификатор кодека/Подсказка : XviD
    Продолжительность : 24 м. 18 с.
    Битрейт : 1524 Кбит/сек
    Ширина : 720 пикселей
    Высота : 400 пикселей
    Соотношение сторон : 16: 9
    Частота кадров : 25, 000 кадров/сек
    Цветовое пространство : YUV
    Субдискретизация насыщенности : 4: 2: 0
    Битовая глубина : 8 бит
    Тип развёртки : Прогрессивная
    Метод сжатия : С потерями
    Бит/(Пиксели*Кадры) : 0.212
    Размер потока : 265 Мбайт (88%)
    Библиотека кодирования : XviD 1.2.1 (UTC 2008-12-04)
    Аудио
    Идентификатор : 1
    Формат : AC-3
    Формат/Информация : Audio Coding 3
    Параметр Endianness формата : Big
    Идентификатор кодека : 2000
    Продолжительность : 24 м. 18 с.
    Вид битрейта : Постоянный
    Битрейт : 192 Кбит/сек
    Каналы : 2 канала
    Расположение каналов : Front: L R
    Частота : 44, 1 КГц
    Частота кадров : 28, 711 кадров/сек (1536 SPF)
    Битовая глубина : 16 бит
    Метод сжатия : С потерями
    Размер потока : 33, 4 Мбайт (11%)
    Выравнивание : Разделение по промежуткам
    Продолжительность промежутка : 40 мс. (1, 00 видеокадр)
    Время предзагрузки промежутка : 500 мс.
    ServiceKind/String : Complete Main


    Онлайн видео Физрук (2017) WEB



    Физрук (2017) WEB-DLRip (сезон 4, серии 1-2 из 20) (обновляемая)
    загрузка...
    Рейтинг →
     (голосов: 1, оценка 5/5, голосовать можно 1 раз )

    Другие торренты по теме:

  • Физрук (2014) WEB-DLRip [H.264 / 720p-LQ] (Сезон 2, серии 1-2 из 20) (обновляемая) скачать через торрент бесплатно
  • Физрук (2014) WEB-DLRip (Сезон 2, серии 1 из 20) (обновляемая) скачать через торрент бесплатно
  • Физрук (2014) WEB-DLRip (Сезон 2, серии 1-3 из 20) (обновляемая)
  • Физрук (2014) WEB-DLRip [H.264] (Сезон 2, серии 1-5 из 20) (обновляемая) скачать через торрент бесплатно
  • Физрук (2014) WEB-DLRip [H.264] (Сезон 2, серии 6-13 из 20) (обновляемая) (временная)
  • Физрук (2016) WEB-DLRip (Сезон 3, серии 1-4 из 20) (обновляемая)
  • Физрук (2016) WEB-DLRip [H.264] (сезон 3, серии 1-21 из 21)
  • Физрук (2017) WEB-DLRip [H.264] (сезон 4, серии 1-2 из 21) (Обновляемая)


    • Комментарии (0):

      Информация

      Информация

        Посетители, находящиеся в группе Гости, не могут оставлять комментарии в данной новости.

        ↓ Меню




        ↓ Опрос

        Вы добавили сайт в закладки?
        Да
        Нет


        Top 10 за месяц (Фильмы)