.
Авторизация | Регистрация
Хочешь лучшие торренты? Добавь свой email!
Добавить

Торрент скачать бесплатно

» » Спящие (2017) HDTV [H.264 / 1080i-LQ] (серии 1-2 из 8) (обновляемая) торрент скачать бесплатно




    Спящие (2017) HDTV [H.264 / 1080i-LQ] (серии 1-2 из 8) (обновляемая) торрент скачать бесплатно

    Опубликовал: Админ | Дата: 10-10-2017, 05:00 | Просмотров: 0

    Производство: Россия, BUBBLEGUM PRODUCTION, Art Pictures Studio
    Жанр: триллер
    Режиссер: Юрий Быков

    Актеры
    Игорь Петренко, Наталья Рогожкина, Дмитрий Ульянов, Федор Бондарчук, Юрий Беляев, Паулина Андреева, Александр Рапопорт, Олег Морозов, Грант Каграманян, Юрий Быков и др.

    Описание

    Спящие (спящие агенты) — агенты, глубоко инкорпорированные в структуру противоположных сил. Вербуются до того, как получают доступ к закрытой информации, иногда даже до того, как начинают работать в той сфере, которая интересует вербующую сторону. Их часто вербуют на вырост. Действие происходит в Москве в июне 2013 года накануне больших геополитических событий и потрясений, которые, в результате, изменят дальнейшую жизнь мира.

    Продолжительность: ~00: 50: 00 серия
    Качество видео: HDTV
    Видео: AVC/H.264, 1920x1080, ~5473 Kbps
    Аудио: AC3, 192 Kbps. 2 ch
    Общее
    Уникальный идентификатор : 171241115438170466960080310490237088138 (0x80D3D6D55EA99228B3091830B291B18A)
    Полное имя : G: Спящие (2017). HDTV 1080i1 серия.mkv
    Формат : Matroska
    Версия формата : Version 4/Version 2
    Размер файла : 2, 06 Гбайт
    Продолжительность : 50 м. 54 с.
    Общий поток : 5780 Кбит/сек
    Название фильма : Спящие (2017) 1 серия @ NNM-Club
    Дата кодирования : UTC 2017-10-09 19: 23: 51
    Программа кодирования : mkvmerge v6.9.1 (\'Blue Panther\') 64bit built on Apr 18 2014 18: 23: 38
    Библиотека кодирования : libebml v1.3.0 + libmatroska v1.4.1
    Видео
    Идентификатор : 1
    Формат : AVC
    Формат/Информация : Advanced Video Codec
    Профиль формата : High@L4
    Настройки формата : CABAC/3 Ref Frames
    Параметр CABAC формата : Да
    Параметр RefFrames формата : 3 кадра
    Идентификатор кодека : V_MPEG4/ISO/AVC
    Продолжительность : 50 м. 54 с.
    Битрейт : 5473 Кбит/сек
    Ширина : 1920 пикселей
    Высота : 1080 пикселей
    Соотношение сторон : 16: 9
    Режим частоты кадров : Постоянный
    Частота кадров : 25, 000 кадров/сек
    Стандарт вещания : Component
    Цветовое пространство : YUV
    Субдискретизация насыщенности : 4: 2: 0
    Битовая глубина : 8 бит
    Тип развёртки : Чересстрочная
    Метод сохранения типа развёртки : Раздельные поля
    Порядок развёртки : Верхнее поле первое
    Бит/(Пиксели*Кадры) : 0.106
    Размер потока : 1, 95 Гбайт (95%)
    Язык : Russian
    Default : Да
    Forced : Нет
    Цветовой диапазон : Limited
    Основные цвета : BT.709
    Характеристики трансфера : BT.709
    Коэффициенты матрицы : BT.709
    Аудио
    Идентификатор : 2
    Формат : AC-3
    Формат/Информация : Audio Coding 3
    Параметр Endianness формата : Big
    Идентификатор кодека : A_AC3
    Продолжительность : 50 м. 54 с.
    Вид битрейта : Постоянный
    Битрейт : 192 Кбит/сек
    Каналы : 2 канала
    Расположение каналов : Front: L R
    Частота : 48, 0 КГц
    Частота кадров : 31, 250 кадров/сек (1536 SPF)
    Битовая глубина : 16 бит
    Метод сжатия : С потерями
    Размер потока : 69, 9 Мбайт (3%)
    Язык : Russian
    ServiceKind/String : Complete Main
    Default : Да
    Forced : Нет


    Онлайн видео Спящие (2017) HDTV [H.264



    Спящие (2017) HDTV [H.264/1080i-LQ] (серии 1-2 из 8) (обновляемая)
    загрузка...
    Рейтинг →
     (голосов: 1, оценка 4/5, голосовать можно 1 раз )

    Другие торренты по теме:

  • Биой Касарес | Спящие на солнце (2011) [MP3]
  • Спящие (2017) SATRip (серии 1-2 из 8) (обновляемая)
  • Спящие (2017) SATRip [H.264] (серии 1-4 из 8) (обновляемая)
  • Спящие (2017) WEB-DL [H.264 / 720p-LQ] (серии 1-2 из 8) (обновляемая)
  • Спящие (2017) WEBRip (серии 1-8 из 8)


    • Комментарии (0):

      Информация

      Информация

        Посетители, находящиеся в группе Гости, не могут оставлять комментарии в данной новости.

        ↓ Меню




        ↓ Опрос

        Вы добавили сайт в закладки?
        Да
        Нет


        Top 10 за месяц (Фильмы)