.
Авторизация | Регистрация
Хочешь лучшие торренты? Добавь свой email!
Добавить

Торрент скачать бесплатно

» » Спящие (2017) SATRip (серии 1-2 из 8) (обновляемая) торрент скачать бесплатно




    Спящие (2017) SATRip (серии 1-2 из 8) (обновляемая) торрент скачать бесплатно

    Опубликовал: Админ | Дата: 10-10-2017, 05:00 | Просмотров: 0

    Производство: Россия, BUBBLEGUM PRODUCTION, Art Pictures Studio
    Жанр: триллер
    Режиссер: Юрий Быков

    Актеры
    Игорь Петренко, Наталья Рогожкина, Дмитрий Ульянов, Федор Бондарчук, Юрий Беляев, Паулина Андреева, Александр Рапопорт, Олег Морозов, Грант Каграманян, Юрий Быков и др.

    Описание

    Спящие (спящие агенты) — агенты, глубоко инкорпорированные в структуру противоположных сил. Вербуются до того, как получают доступ к закрытой информации, иногда даже до того, как начинают работать в той сфере, которая интересует вербующую сторону. Их часто вербуют на вырост. Действие происходит в Москве в июне 2013 года накануне больших геополитических событий и потрясений, которые, в результате, изменят дальнейшую жизнь мира.

    Продолжительность: ~00: 50: 00 серия
    Качество видео: SATRip
    Видео: XviD, 704x448, ~1800 Kbps
    Аудио: MP3, 128 Kbps. 2 ch
    Общее
    Полное имя : G: Спящие (2017). SATRip1 серия.avi
    Формат : AVI
    Формат/Информация : Audio Video Interleave
    Размер файла : 739 Мбайт
    Продолжительность : 53 м. 19 с.
    Общий поток : 1938 Кбит/сек
    Программа кодирования : VirtualDubMod 1.5.10.3 |www.virtualdub-fr.org|| (build 2550/release)
    Библиотека кодирования : VirtualDubMod build 2550/release
    Видео
    Идентификатор : 0
    Формат : MPEG-4 Visual
    Профиль формата : Advanced Simple@L5
    Настройки формата : BVOP2
    Параметр BVOP формата : 2
    Параметр QPel формата : Нет
    Параметр GMC формата : Без точки перехода
    Параметр матрицы формата : Default (H.263)
    Идентификатор кодека : XVID
    Идентификатор кодека/Подсказка : XviD
    Продолжительность : 53 м. 19 с.
    Битрейт : 1800 Кбит/сек
    Ширина : 704 пикселя
    Высота : 448 пикселей
    Соотношение сторон : 16: 10
    Частота кадров : 25, 000 кадров/сек
    Цветовое пространство : YUV
    Субдискретизация насыщенности : 4: 2: 0
    Битовая глубина : 8 бит
    Тип развёртки : Прогрессивная
    Метод сжатия : С потерями
    Бит/(Пиксели*Кадры) : 0.228
    Размер потока : 686 Мбайт (93%)
    Библиотека кодирования : XviD 1.2.1 (UTC 2008-12-04)
    Аудио
    Идентификатор : 1
    Формат : MPEG Audio
    Версия формата : Version 1
    Профиль формата : Layer 3
    Настройки формата : Joint stereo/MS Stereo
    Режим : Joint stereo
    Расширение режима : MS Stereo
    Идентификатор кодека : 55
    Идентификатор кодека/Подсказка : MP3
    Продолжительность : 53 м. 19 с.
    Вид битрейта : Постоянный
    Битрейт : 128 Кбит/сек
    Каналы : 2 канала
    Частота : 48, 0 КГц
    Метод сжатия : С потерями
    Размер потока : 48, 8 Мбайт (7%)
    Выравнивание : Соединение по промежуткам
    Продолжительность промежутка : 40 мс. (1, 00 видеокадр)
    Время предзагрузки промежутка : 504 мс.
    Библиотека кодирования : LAME3.99r
    Настройки программы : -m j -V 4 -q 9 -lowpass 17 -b 128


    Онлайн видео Спящие (2017) SATRip (серии 1



    Спящие (2017) SATRip (серии 1-2 из 8) (обновляемая)
    загрузка...
    Рейтинг →
     (голосов: 1, оценка 3/5, голосовать можно 1 раз )

    Другие торренты по теме:

  • Спящие (2017) SATRip [H.264] (серии 1-4 из 8) (обновляемая)


    • Комментарии (0):

      Информация

      Информация

        Посетители, находящиеся в группе Гости, не могут оставлять комментарии в данной новости.

        ↓ Меню




        ↓ Опрос

        Вы добавили сайт в закладки?
        Да
        Нет


        Top 10 за месяц (Фильмы)