.
Авторизация | Регистрация
Хочешь лучшие торренты? Добавь свой email!
Добавить

Торрент скачать бесплатно

» » Улица (2017) HDTVRip (сезон 1, серии 1-5 из 16) (обновляемая) торрент скачать бесплатно




    Улица (2017) HDTVRip (сезон 1, серии 1-5 из 16) (обновляемая) торрент скачать бесплатно

    Опубликовал: Админ | Дата: 10-10-2017, 05:00 | Просмотров: 0

    Производство: Россия/ТНТ, ГудСториМедиа
    Жанр: драма, комедия, мелодрама, триллер
    Режиссер: Жанна Кадникова, Николай Бурлак, Михаил Соловьёв

    Актеры
    Егор Клинаев, Ольга (Лёля) Баранова, Владимир Хацкевич, Екатерина Седик, Павел Савинков, Сергей Змичеревский, Артемий Падалка, Марина Богатова, Ксения Жданова, Марта Дромашко, Александр Терехов

    Описание

    Улица — это история жителей одной из улиц спального района большого города. Школьники и студенты, домохозяйки и продавцы, олигархи и простые рабочие — здесь встретятся более 30 персонажей разного возраста и социального статуса, у каждого из них своя история. В большой Вселенной Улицы нет главных и второстепенных героев, здесь есть бурная жизнь с ее радостями, горестями, казусами и косяками, страхами, любовными переживаниями и трагедиями. Это история про всех нас и наших соседей.

    Возраст: 16+ (зрителям, достигшим 16 лет)
    Продолжительность: ~ 00: 27: 00 серия
    Качество видео: HDTVRip
    Видео: XviD, 688x384, ~ 1300 Kbps
    Аудио: MP3, 2 ch, 128 Kbps

    General
    Complete name : D: СЕРИАЛЫУЛИЦАUlica.2017.HDTVRip.GeneralFilmUlica.S01E01.avi
    Format : AVI
    Format/Info : Audio Video Interleave
    File size : 279 MiB
    Duration : 27 min 12 s
    Overall bit rate : 1 431 kb/s
    Writing application : VirtualDubMod 1.5.10.3 |www.virtualdub-fr.org|| (build 2550/release)
    Writing library : VirtualDubMod build 2550/release
    Video
    ID : 0
    Format : MPEG-4 Visual
    Format profile : Advanced Simple@L5
    Format settings, BVOP : 1
    Format settings, QPel : No
    Format settings, GMC : No warppoints
    Format settings, Matrix : Custom
    Codec ID : XVID
    Codec ID/Hint : XviD
    Duration : 27 min 12 s
    Bit rate : 1 293 kb/s
    Width : 688 pixels
    Height : 384 pixels
    Display aspect ratio : 16: 9
    Frame rate : 25.000 FPS
    Color space : YUV
    Chroma subsampling : 4: 2: 0
    Bit depth : 8 bits
    Scan type : Progressive
    Compression mode : Lossy
    Bits/(Pixel*Frame) : 0.196
    Stream size : 252 MiB (90%)
    Writing library : XviD 73
    Audio
    ID : 1
    Format : MPEG Audio
    Format version : Version 1
    Format profile : Layer 3
    Codec ID : 55
    Codec ID/Hint : MP3
    Duration : 27 min 12 s
    Bit rate mode : Constant
    Bit rate : 128 kb/s
    Channel(s) : 2 channels
    Sampling rate : 48.0 kHz
    Compression mode : Lossy
    Stream size : 24.9 MiB (9%)
    Alignment : Aligned on interleaves
    Interleave, duration : 40 ms (1.00 video frame)
    Interleave, preload duratio : 504 ms
    Writing library : LAME3.99r
    Encoding settings : -m s -V 4 -q 0 -lowpass 17 -b 128


    Онлайн видео Улица (2017) HDTVRip (сезон любимого сериала 1, серии 1



    Улица (2017) HDTVRip (сезон 1, серии 1-5 из 16) (обновляемая)
    загрузка...
    Рейтинг →
     (голосов: 1, оценка 5/5, голосовать можно 1 раз )

    Другие торренты по теме:

  • Улица (2017) HDTVRip [H.264] (сезон 1, серии 1-4 из 16) (обновляемая)


    • Комментарии (0):

      Информация

      Информация

        Посетители, находящиеся в группе Гости, не могут оставлять комментарии в данной новости.

        ↓ Меню




        ↓ Опрос

        Вы добавили сайт в закладки?
        Да
        Нет


        Top 10 за месяц (Фильмы)