.
Авторизация | Регистрация
Хочешь лучшие торренты? Добавь свой email!
Добавить

Торрент скачать бесплатно

» » Физрук (2017) HDTV [H.264 / 1080i-LQ] (сезон 4, серии 1-2 из 20) (Обновляемая) торрент скачать бесплатно




    Физрук (2017) HDTV [H.264 / 1080i-LQ] (сезон 4, серии 1-2 из 20) (Обновляемая) торрент скачать бесплатно

    Опубликовал: Админ | Дата: 10-10-2017, 05:00 | Просмотров: 0

    Производство: Россия, Good Story Media
    Жанр: Комедия
    Режиссер: Игорь Волошин

    Актеры
    Дмитрий Нагиев, Александр Гордон, Полина Гренц, Анастасия Панина, Владимир Сычёв, Даниил Вахрушев, Андрей Крыжний, Артур Сопельник, Оксана Сидоренко, Карина Мишулина, Роман Индык и др.

    Описание

    Железногорск, классическая русская провинция, не богатая, но уютная и знакомая. Здесь и коррумпированные чиновники, и низкие зарплаты, и плохие дороги… Другими словами — привычный набор наших общероссийских проблем, одна из которых — противостояние драматического театра и местной администрации, в лице худрука Эрнеста Шиловского и зам мэра Горыжникова. Шиловский весь в долгах, а местные власти претендуют на здание театра, чтобы перестроить его под торговый центр.Фома знакомится с отцом — немного странным, совершенно непохожим на него человеком, и принимает Эрнеста Петровича со всеми его недостатками и проблемами. А раз так, то Фома остается в Железногорске, и будет спасать местный театр, а заодно наведет в городе свой порядок. Физрук теперь худрук.

    Возраст: 16+ (зрителям, достигшим 16 лет)
    Продолжительность: ~ 00: 24: 00 серия
    Качество видео: HDTV
    Видео: AVC/H.264, 1920x1080, ~7800 Kbps
    Аудио: MP2, 2 ch, 192 Kbps

    General
    ID : 1 (0x1)
    Complete name : D: СЕРИАЛЫФИЗРУКFizruk.s04.2017.HDTV.(1080i).NikolspupFizruk.s04.(01.seriya).2017.HDTV.(1080i).Nikolspup.ts
    Format : MPEG-TS
    File size : 1.40 GiB
    Duration : 23 min 52 s
    Overall bit rate mode : Variable
    Overall bit rate : 8 410 kb/s
    Video
    ID : 207 (0xCF)
    Menu ID : 2207 (0x89F)
    Format : AVC
    Format/Info : Advanced Video Codec
    Format profile : High@L4
    Format settings, CABAC : Yes
    Format settings, RefFrames : 4 frames
    Codec ID : 27
    Duration : 23 min 52 s
    Bit rate : 7 800 kb/s
    Width : 1 920 pixels
    Height : 1 080 pixels
    Display aspect ratio : 16: 9
    Frame rate : 25.000 FPS
    Standard : Component
    Color space : YUV
    Chroma subsampling : 4: 2: 0
    Bit depth : 8 bits
    Scan type : Interlaced
    Scan type, store method : Separated fields
    Scan order : Top Field First
    Bits/(Pixel*Frame) : 0.150
    Stream size : 1.30 GiB (93%)
    Color range : Limited
    Color primaries : BT.709
    Transfer characteristics : BT.709
    Matrix coefficients : BT.709
    Audio
    ID : 307 (0x133)
    Menu ID : 2207 (0x89F)
    Format : MPEG Audio
    Format version : Version 1
    Format profile : Layer 2
    Codec ID : 3
    Duration : 23 min 52 s
    Bit rate mode : Constant
    Bit rate : 192 kb/s
    Channel(s) : 2 channels
    Sampling rate : 48.0 kHz
    Compression mode : Lossy
    Stream size : 32.8 MiB (2%)
    Language : Russian


    Онлайн видео Физрук (2017) HDTV [H.264



    Физрук (2017) HDTV [H.264/1080i-LQ] (сезон 4, серии 1-2 из 20) (Обновляемая)
    загрузка...
    Рейтинг →
     (голосов: 1, оценка 5/5, голосовать можно 1 раз )

    Другие торренты по теме:

  • Физрук (2014) WEB-DLRip [H.264 / 720p-LQ] (Сезон 2, серии 1-2 из 20) (обновляемая) скачать через торрент бесплатно
  • Физрук (2014) WEB-DLRip (Сезон 2, серии 1 из 20) (обновляемая) скачать через торрент бесплатно
  • Физрук (2014) WEB-DLRip (Сезон 2, серии 1-3 из 20) (обновляемая)
  • Физрук (2014) SATRip ( сезон 2, серии 1-3 из 20) (обновляемая)
  • Физрук (2014) WEB-DLRip [H.264] (Сезон 2, серии 1-5 из 20) (обновляемая) скачать через торрент бесплатно
  • Физрук (2014) SATRip (Сезон 2, серии 6-7 из 20) (обновляемая) (временная) скачать через торрент бесплатно
  • Физрук (2014) WEB-DLRip [H.264] (Сезон 2, серии 6-13 из 20) (обновляемая) (временная)
  • Физрук (2016) SATRip (Сезон 3, серии 1-2 из 20) (обновляемая)


    • Комментарии (0):

      Информация

      Информация

        Посетители, находящиеся в группе Гости, не могут оставлять комментарии в данной новости.

        ↓ Меню




        ↓ Опрос

        Вы добавили сайт в закладки?
        Да
        Нет


        Top 10 за месяц (Фильмы)