.
Авторизация | Регистрация
Хочешь лучшие торренты? Добавь свой email!
Добавить

Торрент скачать бесплатно

» » Ивановы-Ивановы (2017) WEB-DL [H.264 / 1080p-LQ] (сезон 1, серия 1-5 из 20) (обновляемая) торрент скачать бесплатно




    Ивановы-Ивановы (2017) WEB-DL [H.264 / 1080p-LQ] (сезон 1, серия 1-5 из 20) (обновляемая) торрент скачать бесплатно

    Опубликовал: Админ | Дата: 10-10-2017, 05:00 | Просмотров: 0

    Телекомпания: СТС
    Жанр: Комедия
    Режиссер: Антон Федотов

    Актеры
    Семён Трескунов, Сергей Бурунов, Михаил Трухин, Александра Флоринская, Анна Уколова, Юрий Ицков, Алексей Лукин

    Описание

    Герои — две российские семьи Ивановых. Они не знакомы друг с другом, у них разный достаток и круг интересов. Одни — бедны и провинциальны, вторые — более чем обеспеченны и высокомерны. Они были бы счастливы прожить жизнь, ничего не зная друг о друге, но в один прекрасный день выясняется, что много лет назад наследников этих семей перепутали в роддоме, и все эти годы сын бедняков обитал в шикарном особняке, а отпрыск богатых Ивановых ютился в малогабаритной квартире. Конечно, теперь все хотят получить обратно своих кровных наследников.

    Дата премьеры в РФ: 16 октября 2017
    Продолжительность: ~ 00: 25: 00 серия
    Качество видео: WEB-DL
    Видео: AVC, 1920x1080 (16: 9), 25.000 fps, 6 313 Kbps (0.122 bit/pixel)
    Аудио: AC-3, 48.0 KHz, 2 ch, 192 Kbps, CBR
    Код: выделить все
    Общее
    Уникальный идентификатор : 172783940951947812217502087662130803723 (0x81FCFA0112765AE2B74033BDFDADB40B)
    Полное имя : D:[1]Ивановы-ИвановыИвановы-Ивановы (2017)_1080Ивановы-Ивановы. Серия 01 (2017).mkv
    Формат : Matroska
    Версия формата : Version 4/Version 2
    Размер файла : 1, 14 Гбайт
    Продолжительность : 24 м.
    Режим общего битрейта : Переменный
    Общий поток : 6637 Кбит/сек
    Название фильма : 25Kuzmich
    Дата кодирования : UTC 2017-10-08 21:08:22
    Программа кодирования : mkvmerge v9.4.0 (\'Knurl\') 32bit
    Библиотека кодирования : libebml v1.3.4 + libmatroska v1.4.5
    DURATION : 00:24:39.808000000
    NUMBER_OF_FRAMES : 46244
    NUMBER_OF_BYTES : 35515392
    _STATISTICS_WRITING_APP : mkvmerge v9.4.0 (\'Knurl\') 32bit
    _STATISTICS_WRITING_DATE_UTC : 2017-10-08 21:08:22
    _STATISTICS_TAGS : BPS DURATION NUMBER_OF_FRAMES NUMBER_OF_BYTES
    Видео
    Идентификатор : 1
    Формат : AVC
    Формат/Информация : Advanced Video Codec
    Профиль формата : High@L4
    Параметр CABAC формата : Да
    Параметр ReFrames формата : 4 кадра
    Параметр GOP формата : M=2, N=15
    Идентификатор кодека : V_MPEG4/ISO/AVC
    Продолжительность : 24 м.
    Вид битрейта : Переменный
    Битрейт : 6313 Кбит/сек
    Максимальный битрейт : 40, 0 Мбит/сек
    Ширина : 1920 пикселей
    Высота : 1080 пикселей
    Соотношение сторон : 16:9
    Режим частоты кадров : Постоянный
    Частота кадров : 25, 000 кадров/сек
    Цветовое пространство : YUV
    Субдискретизация насыщенности : 4:2:0
    Битовая глубина : 8 бит
    Тип развёртки : Прогрессивная
    Бит/(Пиксели*Кадры) : 0.122
    Размер потока : 1, 09 Гбайт (95%)
    Default : Да
    Forced : Нет
    Аудио
    Идентификатор : 2
    Формат : AC-3
    Формат/Информация : Audio Coding 3
    Расширение режима : CM (complete main)
    Параметр Endianness формата : Big
    Идентификатор кодека : A_AC3
    Продолжительность : 24 м.
    Вид битрейта : Постоянный
    Битрейт : 192 Кбит/сек
    Каналы : 2 канала
    Расположение каналов : Front: L R
    Частота : 48, 0 КГц
    Битовая глубина : 16 бит
    Метод сжатия : С потерями
    Размер потока : 33, 9 Мбайт (3%)
    Язык : Russian
    Default : Да
    Forced : Нет


    Онлайн видео Ивановы-Ивановы (2017) WEB-DL [H.264



    Ивановы-Ивановы (2017) WEB-DL [H.264/1080p-LQ] (сезон 1, серия 1-5 из 20) (обновляемая)
    загрузка...
    Рейтинг →
     (голосов: 1, оценка 3/5, голосовать можно 1 раз )

    Другие торренты по теме:

  • Ивановы (2016) WEB-DL [H.264 / 720p-LQ]
  • Ивановы-Ивановы (2017) WEB-DL [H.264 / 720p-LQ] (сезон 1, серии 1-5 из 20) (обновляемая)


    • Комментарии (0):

      Информация

      Информация

        Посетители, находящиеся в группе Гости, не могут оставлять комментарии в данной новости.

        ↓ Меню




        ↓ Опрос

        Вы добавили сайт в закладки?
        Да
        Нет


        Top 10 за месяц (Фильмы)