.
Авторизация | Регистрация
Хочешь лучшие торренты? Добавь свой email!
Добавить

Торрент скачать бесплатно

» » Физрук (2017) WEB-DLRip [H.264] (сезон 4, серии 1-2 из 21) (Обновляемая) торрент скачать бесплатно




    Физрук (2017) WEB-DLRip [H.264] (сезон 4, серии 1-2 из 21) (Обновляемая) торрент скачать бесплатно

    Опубликовал: Админ | Дата: 10-10-2017, 05:00 | Просмотров: 0

    Производство: Россия, Good Story Media
    Жанр: Комедия
    Режиссер: Игорь Волошин

    Актеры
    Дмитрий Нагиев, Александр Гордон, Полина Гренц, Анастасия Панина, Владимир Сычёв, Даниил Вахрушев, Андрей Крыжний, Артур Сопельник, Оксана Сидоренко, Карина Мишулина, Роман Индык и др.

    Описание

    Железногорск, классическая русская провинция, не богатая, но уютная и знакомая. Здесь и коррумпированные чиновники, и низкие зарплаты, и плохие дороги… Другими словами — привычный набор наших общероссийских проблем, одна из которых — противостояние драматического театра и местной администрации, в лице худрука Эрнеста Шиловского и зам мэра Горыжникова. Шиловский весь в долгах, а местные власти претендуют на здание театра, чтобы перестроить его под торговый центр.Фома знакомится с отцом — немного странным, совершенно непохожим на него человеком, и принимает Эрнеста Петровича со всеми его недостатками и проблемами. А раз так, то Фома остается в Железногорске, и будет спасать местный театр, а заодно наведет в городе свой порядок. Физрук теперь худрук.

    Возраст: 16+ (зрителям, достигшим 16 лет)
    Продолжительность: ~ 00: 24: 00 серия
    Качество видео: WEB-DLRip
    Видео: AVC/H.264, 1024x576, ~1600 Kbps
    Аудио: AC3, 2 ch, 192 Kbps

    General
    Unique ID : 179649834865641697345686513243041392916 (0x87274CB5ADBBC47798C6DA7A81796914)
    Complete name : D: СЕРИАЛЫФИЗРУКFizruk.s04.2017.WEB-DLRip.(AVC).Files-x1.Fizruk.s04.(2017).WEB-DLRip.(AVC).by.Серый1779.Files-x.mkv
    Format : Matroska
    Format version : Version 2
    File size : 312 MiB
    Duration : 24 min 18 s
    Overall bit rate : 1 792 kb/s
    Encoded date : UTC 2017-10-09 18: 44: 45
    Writing application : mkvmerge v7.8.0 (\'River Man\') 32bit built on Apr 3 2015 12: 11: 22
    Writing library : libebml v1.3.1 + libmatroska v1.4.2
    Video
    ID : 1
    Format : AVC
    Format/Info : Advanced Video Codec
    Format profile : High@L4.1
    Format settings, CABAC : Yes
    Format settings, RefFrames : 9 frames
    Codec ID : V_MPEG4/ISO/AVC
    Duration : 24 min 18 s
    Bit rate : 1 600 kb/s
    Width : 1 024 pixels
    Height : 576 pixels
    Display aspect ratio : 16: 9
    Frame rate mode : Constant
    Frame rate : 25.000 FPS
    Color space : YUV
    Chroma subsampling : 4: 2: 0
    Bit depth : 8 bits
    Scan type : Progressive
    Bits/(Pixel*Frame) : 0.109
    Stream size : 272 MiB (87%)
    Writing library : x264 core 146 r2538 121396c
    Encoding settings : cabac=1/ref=9/deblock=1: -2: -1/analyse=0x3: 0x113/me=umh/subme=9/psy=1/psy_rd=1.00: 0.15/mixed_ref=1/me_range=32/chroma_me=1/trellis=2/8x8dct=1/cqm=0/deadzone=21, 11/fast_pskip=0/chroma_qp_offset=-3/threads=18/lookahead_threads=3/sliced_threads=0/nr=0/decimate=1/interlaced=0/bluray_compat=0/constrained_intra=0/bframes=9/b_pyramid=2/b_adapt=2/b_bias=0/direct=1/weightb=1/open_gop=0/weightp=2/keyint=250/keyint_min=25/scenecut=40/intra_refresh=0/rc_lookahead=40/rc=2pass/mbtree=0/bitrate=1600/ratetol=1.0/qcomp=0.60/qpmin=0/qpmax=69/qpstep=4/cplxblur=20.0/qblur=0.5/vbv_maxrate=14000/vbv_bufsize=14000/nal_hrd=none/filler=0/ip_ratio=1.40/pb_ratio=1.30/aq=2: 1.00
    Default : Yes
    Forced : No
    Color range : Limited
    Color primaries : BT.709
    Transfer characteristics : BT.709
    Matrix coefficients : BT.709
    Audio
    ID : 2
    Format : AC-3
    Format/Info : Audio Coding 3
    Format settings, Endianness : Big
    Codec ID : A_AC3
    Duration : 24 min 18 s
    Bit rate mode : Constant
    Bit rate : 192 kb/s
    Channel(s) : 2 channels
    Channel positions : Front: L R
    Sampling rate : 44.1 kHz
    Frame rate : 28.711 FPS (1536 SPF)
    Bit depth : 16 bits
    Compression mode : Lossy
    Stream size : 33.4 MiB (11%)
    Service kind : Complete Main
    Default : Yes
    Forced : No


    Онлайн видео Физрук (2017) WEB



    Физрук (2017) WEB-DLRip [H.264] (сезон 4, серии 1-2 из 21) (Обновляемая)
    загрузка...
    Рейтинг →
     (голосов: 1, оценка 5/5, голосовать можно 1 раз )

    Другие торренты по теме:

  • Физрук (2014) WEB-DLRip [H.264 / 720p-LQ] (Сезон 2, серии 1-2 из 20) (обновляемая) скачать через торрент бесплатно
  • Физрук (2014) WEB-DLRip (Сезон 2, серии 1 из 20) (обновляемая) скачать через торрент бесплатно
  • Физрук (2014) WEB-DLRip (Сезон 2, серии 1-3 из 20) (обновляемая)
  • Физрук (2014) WEB-DLRip [H.264] (Сезон 2, серии 1-5 из 20) (обновляемая) скачать через торрент бесплатно
  • Физрук (2014) WEB-DLRip [H.264] (Сезон 2, серии 6-13 из 20) (обновляемая) (временная)
  • Физрук (2016) WEB-DLRip (Сезон 3, серии 1-4 из 20) (обновляемая)
  • Физрук (2016) WEB-DLRip [H.264] (сезон 3, серии 1-21 из 21)
  • Физрук (2017) WEB-DLRip (сезон 4, серии 1-2 из 20) (обновляемая)


    • Комментарии (0):

      Информация

      Информация

        Посетители, находящиеся в группе Гости, не могут оставлять комментарии в данной новости.

        ↓ Меню




        ↓ Опрос

        Вы добавили сайт в закладки?
        Да
        Нет


        Top 10 за месяц (Фильмы)