.
Авторизация | Регистрация
Хочешь лучшие торренты? Добавь свой email!
Добавить

Торрент скачать бесплатно

» » Физрук (2017) HDTVRip [H.264] (сезон 4, серии 1 из 21) (Обновляемая) торрент скачать бесплатно




    Физрук (2017) HDTVRip [H.264] (сезон 4, серии 1 из 21) (Обновляемая) торрент скачать бесплатно

    Опубликовал: Админ | Дата: 10-10-2017, 05:00 | Просмотров: 0

    Производство: Россия, Good Story Media
    Жанр: Комедия
    Режиссер: Игорь Волошин

    Актеры
    Дмитрий Нагиев, Александр Гордон, Полина Гренц, Анастасия Панина, Владимир Сычёв, Даниил Вахрушев, Андрей Крыжний, Артур Сопельник, Оксана Сидоренко, Карина Мишулина, Роман Индык и др.

    Описание

    Железногорск, классическая русская провинция, не богатая, но уютная и знакомая. Здесь и коррумпированные чиновники, и низкие зарплаты, и плохие дороги… Другими словами — привычный набор наших общероссийских проблем, одна из которых — противостояние драматического театра и местной администрации, в лице худрука Эрнеста Шиловского и зам мэра Горыжникова. Шиловский весь в долгах, а местные власти претендуют на здание театра, чтобы перестроить его под торговый центр.Фома знакомится с отцом — немного странным, совершенно непохожим на него человеком, и принимает Эрнеста Петровича со всеми его недостатками и проблемами. А раз так, то Фома остается в Железногорске, и будет спасать местный театр, а заодно наведет в городе свой порядок. Физрук теперь худрук.

    Возраст: 16+ (зрителям, достигшим 16 лет)
    Продолжительность: ~ 00: 24: 00 серия
    Качество видео: HDTVRip
    Видео: AVC/H.264, 1024x576, ~2000 Kbps
    Аудио: AC3, 2 ch, 192 Kbps

    General
    Unique ID : 312289871088061129021491580662922201165 (0xEAF0D7665DB873AF231C02CCEEC1C84D)
    Complete name : D: СЕРИАЛЫФИЗРУКFizruk.s04.2017.HDTVRip.(AVC).GeneralFilm1.Fizruk.s04.HDTVRip.(AVC).GeneralFilm.mkv
    Format : Matroska
    Format version : Version 2
    File size : 377 MiB
    Duration : 23 min 52 s
    Overall bit rate : 2 206 kb/s
    Writing application : Lavf54.63.104
    Writing library : Lavf54.63.104
    Video
    ID : 1
    Format : AVC
    Format/Info : Advanced Video Codec
    Format profile : High@L4.1
    Format settings, CABAC : Yes
    Format settings, RefFrames : 9 frames
    Codec ID : V_MPEG4/ISO/AVC
    Duration : 23 min 52 s
    Bit rate : 1 970 kb/s
    Width : 1 024 pixels
    Height : 576 pixels
    Display aspect ratio : 16: 9
    Frame rate mode : Constant
    Frame rate : 25.000 FPS
    Color space : YUV
    Chroma subsampling : 4: 2: 0
    Bit depth : 8 bits
    Scan type : Progressive
    Bits/(Pixel*Frame) : 0.134
    Stream size : 336 MiB (89%)
    Default : No
    Forced : No
    Color range : Limited
    Color primaries : BT.709
    Transfer characteristics : BT.709
    Matrix coefficients : BT.709
    Audio
    ID : 2
    Format : AC-3
    Format/Info : Audio Coding 3
    Format settings, Endianness : Big
    Codec ID : A_AC3
    Duration : 23 min 52 s
    Bit rate mode : Constant
    Bit rate : 192 kb/s
    Channel(s) : 2 channels
    Channel positions : Front: L R
    Sampling rate : 48.0 kHz
    Frame rate : 31.250 FPS (1536 SPF)
    Bit depth : 16 bits
    Compression mode : Lossy
    Stream size : 32.8 MiB (9%)
    Service kind : Complete Main
    Default : Yes
    Forced : No


    Онлайн видео Паук (2017) WEB-DLRip [H.264



    Физрук (2017) HDTVRip [H.264] (сезон 4, серии 1 из 21) (Обновляемая)
    загрузка...
    Рейтинг →
     (голосов: 1, оценка 3/5, голосовать можно 1 раз )

    Другие торренты по теме:

  • Физрук (2017) HDTVRip (Сезон 4, серии 1-2 из 20) (Обновляемая)
  • Физрук (2017) HDTVRip [H.264 / 720p-LQ] (сезон 4, серии 1-3 из 20) (Обновляемая)
  • Физрук: От звонка до звонка (2017) HDTVRip


    • Комментарии (0):

      Информация

      Информация

        Посетители, находящиеся в группе Гости, не могут оставлять комментарии в данной новости.

        ↓ Меню




        ↓ Опрос

        Вы добавили сайт в закладки?
        Да
        Нет


        Top 10 за месяц (Фильмы)